<?xml version="1.0" standalone="no"?>
<!DOCTYPE svg PUBLIC "-//W3C//DTD SVG 1.1//EN" "http://www.w3.org/Graphics/SVG/1.1/DTD/svg11.dtd" >
<svg xmlns="http://www.w3.org/2000/svg">
<metadata></metadata>
<defs>
<font id="akzidenz-grotesk_bq_light_cRg" horiz-adv-x="641" >
<font-face units-per-em="2048" ascent="1638" descent="-410" />
<missing-glyph horiz-adv-x="382" />
<glyph horiz-adv-x="0" />
<glyph horiz-adv-x="682" />
<glyph unicode=" "  horiz-adv-x="382" />
<glyph unicode="&#x09;" horiz-adv-x="382" />
<glyph unicode="&#xa0;" horiz-adv-x="382" />
<glyph unicode="!" horiz-adv-x="382" d="M188 0v184h93v-184h-93zM188 676v770h99v-784l-23 -279h-57z" />
<glyph unicode="&#x22;" horiz-adv-x="557" d="M80 1516h119l-37 -590h-43zM358 1516h119l-39 -590h-43z" />
<glyph unicode="#" horiz-adv-x="1052" d="M41 539v82h283l20 229h-270v84h278l43 512h90l-43 -512h203l43 512h86l-43 -512h279v-84h-287l-18 -229h280v-82h-289l-43 -539h-88l47 539h-204l-46 -539h-90l45 539h-276zM416 621h202l19 229h-203z" />
<glyph unicode="$" horiz-adv-x="733" d="M61 432v27h91v-78q0 -110 26 -180q45 -111 189 -111q103 0 152.5 60t49.5 184q0 105 -34.5 170.5t-147.5 171.5q-164 156 -217 223q-37 48 -53.5 107t-16.5 151q0 269 232 287v102h63v-102q64 -8 102.5 -26t67.5 -54q34 -40 47 -95.5t13 -162.5v-29h-93v43q0 96 -18 148 q-36 88 -152 88q-89 0 -127 -48t-38 -157q0 -80 18 -125q10 -30 35 -65q53 -69 180 -185q140 -131 187 -218t47 -214q0 -160 -66 -244t-201 -98v-147h-63v147q-134 11 -201 96q-41 53 -56.5 123.5t-15.5 210.5z" />
<glyph unicode="%" horiz-adv-x="1193" d="M41 752v475q0 71 12 110q13 45 57 79.5t123 33.5q72 0 115 -29q33 -21 49.5 -56.5t18.5 -61t2 -73.5v-11v-469q0 -59 -15 -105q-42 -113 -172 -113q-143 0 -180 127q-10 33 -10 93zM121 760q0 -25 1.5 -41t6.5 -36.5t17 -36t32 -25.5q23 -13 53 -13q47 0 80 33 q31 35 31 109v477q0 1 0.5 12t0 17.5t-1.5 20t-4 23t-8 21.5t-13.5 20.5t-19.5 16t-27 11t-36 3.5q-32 0 -55 -9.5t-33.5 -21.5t-16.5 -32.5t-6.5 -31.5t-0.5 -30v-6v-481zM186 -121l752 1731l51 -25l-751 -1728zM766 209v475q0 39 2 57q10 67 34 100q20 26 48 42 q44 24 111 24t110 -26q26 -16 41.5 -37.5t22 -51t7.5 -49t1 -56.5v-11v-469q0 -59 -8 -92q-5 -20 -16 -39.5t-31 -40t-54.5 -33t-77.5 -12.5q-137 0 -176 114q-14 43 -14 105zM846 217q0 -30 2 -49t12.5 -43.5t30.5 -38.5q30 -20 65 -20q37 0 62 16q49 33 49 125v477 q0 53 -8 80q-24 65 -101 65q-65 0 -94 -41q-12 -17 -15 -33.5t-3 -56.5v-481z" />
<glyph unicode="&#x26;" horiz-adv-x="894" d="M66 270q0 61 14 115t46.5 108.5t59 89.5t76.5 95q0 1 -7.5 21t-12.5 35.5t-13.5 42.5t-14.5 52.5t-12 56t-9 62t-3 60.5q0 111 56 178q22 29 51 43q35 20 90 20q81 0 127.5 -48t46.5 -128q0 -49 -20 -110q-20 -56 -58.5 -117.5t-120.5 -175.5q105 -242 254 -477 q20 29 31.5 49.5t26.5 61.5t24 93q20 113 15 303h90q0 -81 -2 -132t-9.5 -124t-26.5 -135.5t-50 -115.5q-8 -15 -43 -66q45 -34 84.5 -43t101.5 -4v-84q-106 0 -153 13t-99 52q-14 -14 -43 -32q-81 -47 -194 -47q-132 0 -209 67q-94 84 -94 221zM158 281q0 -78 35.5 -127.5 t76.5 -67.5q46 -20 109 -20q104 0 172 59l-30 45t-40 61q-18 30 -50.5 91t-35.5 67q-8 17 -25.5 48.5t-25.5 47.5q-17 36 -45 97q-41 -52 -51 -68q-90 -127 -90 -233zM276 999q0 -76 27 -170q10 -33 25 -63q88 121 116 188q29 64 29 115q0 42 -24 72t-66 30 q-49 0 -78.5 -43.5t-28.5 -128.5z" />
<glyph unicode="'" horiz-adv-x="280" d="M80 1516h119l-37 -590h-43z" />
<glyph unicode="(" horiz-adv-x="468" d="M59 596q0 186 59 379t165 342q39 53 106 131v-115q-43 -62 -65 -98q-80 -132 -126 -311.5t-46 -339.5q0 -202 62 -403.5t179 -348.5v-119q-85 93 -117 140q-101 148 -159 352t-58 391z" />
<glyph unicode=")" horiz-adv-x="468" d="M76 1331v119q57 -56 114 -137q103 -149 161.5 -351.5t58.5 -392.5q0 -180 -55.5 -369t-155.5 -333q-23 -33 -121 -150v115q114 144 176.5 348t62.5 400q0 145 -36 304.5t-99 284.5q-38 78 -106 162z" />
<glyph unicode="*" horiz-adv-x="624" d="M59 1231l25 78l186 -52v197h82v-201l191 66l26 -74l-192 -71l117 -164l-64 -49l-121 161l-106 -161l-66 49l109 166z" />
<glyph unicode="+" horiz-adv-x="1142" d="M172 565v84h354v377h92v-377h353v-84h-353v-377h-92v377h-354z" />
<glyph unicode="," horiz-adv-x="299" d="M104 0v186h93v-186q0 -72 -18 -113.5t-75 -70.5v45q24 16 35.5 41.5t13 43t1.5 54.5h-50z" />
<glyph unicode="-" horiz-adv-x="507" d="M72 555v86h362v-86h-362z" />
<glyph unicode="." horiz-adv-x="299" d="M106 0v184h91v-184h-91z" />
<glyph unicode="/" d="M70 0l409 1446h92l-407 -1446h-94z" />
<glyph unicode="0" horiz-adv-x="724" d="M74 326v804q0 88 14 136q11 37 30.5 67.5t41 49.5t49 32.5t49.5 20.5t48.5 11t40 4.5t28.5 0.5q157 0 229 -100q51 -72 51 -242v-803q0 -67 -12 -108q-27 -96 -102.5 -147.5t-178.5 -51.5q-94 0 -165.5 45.5t-102.5 132.5q-20 62 -20 148zM168 346q0 -42 2 -66t9 -56.5 t25.5 -56.5t47.5 -44q47 -33 110 -33q21 0 43 4.5t51 16.5t54 40t39 68q12 40 12 88v840q0 105 -44 159t-148 54q-151 0 -189 -117q-12 -43 -12 -113v-784z" />
<glyph unicode="1" horiz-adv-x="724" d="M102 1155v80q88 12 145 57t85 97q4 8 18 49h92v-1438h-102v1260q-30 -25 -45 -35q-15 -11 -30.5 -20t-28 -15t-28.5 -11.5t-24.5 -8.5t-24.5 -6t-21 -4t-20 -3t-16 -2z" />
<glyph unicode="2" horiz-adv-x="724" d="M84 0v106q1 3 7 24t11 32q33 79 125 207q17 25 64.5 91.5t72 102.5t57 93.5t52.5 107.5q27 67 38 131.5t11 185.5v35q0 48 -3 80t-19 71.5t-45 63.5q-35 31 -93 31q-94 0 -133 -80q-28 -52 -28 -205v-98h-90v137q0 104 12 154q6 28 20 54.5t40 56.5t72.5 48.5t106.5 18.5 q88 0 150 -45q64 -48 83 -118t19 -171v-80q0 -119 -18 -200q-15 -72 -57.5 -155.5t-75.5 -133t-97 -137.5q-12 -17 -18 -25q-97 -133 -123 -180q-22 -40 -55 -117h455v-86h-541z" />
<glyph unicode="3" horiz-adv-x="724" d="M70 440h92q0 -43 4 -133q3 -49 7 -78.5t22 -68t51 -60.5q43 -30 114 -30q41 0 66 10q39 13 70 46.5t43 72.5q14 41 14 98v80q0 85 -8 153q-13 103 -88 146q-41 25 -84.5 36t-130.5 15l2 94q119 0 194 58q1 1 9.5 8.5t15.5 14.5t16 19t15 23q18 36 18 88v121q0 38 -4 78 q-19 127 -156 127q-56 0 -90 -23q-38 -25 -49.5 -65t-11.5 -99v-151h-88v158q0 88 20 141q26 66 88 96.5t137 30.5q94 0 150 -40.5t76 -90.5q20 -53 20 -137v-138q0 -53 -10 -88q-6 -21 -14.5 -39.5t-21 -33.5t-23.5 -27t-27 -22.5t-26.5 -17.5t-27 -14t-23 -9.5t-20.5 -7.5 l-14 -5q20 -3 45 -10q122 -31 170 -137q16 -36 22.5 -70t6.5 -96v-154q0 -80 -14 -133q-14 -51 -43 -89t-58.5 -57t-66.5 -30t-60 -13.5t-47 -2.5q-76 0 -137.5 32.5t-97.5 96.5q-26 47 -34 106.5t-12 186.5q-1 22 -1 34z" />
<glyph unicode="4" horiz-adv-x="724" d="M39 461v94l373 881h127v-889h172v-86h-172v-461h-95v461h-405zM131 547h313v756z" />
<glyph unicode="5" horiz-adv-x="724" d="M94 309v146h90v-113q0 -126 19 -174q12 -34 46.5 -61t96.5 -27q82 0 123 41q37 34 47 89.5t10 170.5v299q0 119 -49 168q-39 41 -108 41q-95 0 -140 -64q-30 -42 -30 -133h-76v748h475v-88h-383v-430q82 55 164 55q114 0 180 -84q37 -47 48 -104.5t11 -137.5v-272 q0 -149 -18 -215q-8 -29 -22.5 -55t-41.5 -54t-73.5 -45t-106.5 -18q-97 0 -161 43q-28 19 -48 45t-30 50t-15.5 58.5t-6.5 58.5t-1 62z" />
<glyph unicode="6" horiz-adv-x="724" d="M98 328v827q0 76 21 137q64 166 276 166q23 0 50 -3t75 -23t78 -54q27 -31 41 -79.5t16 -81.5t2 -89v-67l-94 2q0 107 -8 164q-2 16 -6.5 33t-22.5 44t-47 42q-35 20 -90 20q-62 0 -110 -29q-88 -53 -86 -193v-7v-346q23 20 47 36q77 52 170 52q134 -2 202 -103 q26 -41 34.5 -94.5t8.5 -159.5v-266l-1 -21q-2 -21 -6 -42.5t-11 -40.5q-15 -42 -44 -74t-58.5 -47.5t-65 -25t-56 -11.5t-38.5 -2q-147 0 -221 94q-26 33 -39 78t-15 77t-2 87zM190 340q0 -41 1.5 -64t8 -58.5t23 -61t43.5 -43.5q48 -29 107 -29q73 0 115.5 31t56.5 69 q16 40 16 97v301q0 126 -59 174q-38 32 -99 32q-44 0 -88 -18t-73 -49q-52 -54 -52 -168v-213z" />
<glyph unicode="7" horiz-adv-x="724" d="M96 1350v90h555v-90q-61 -135 -114 -273q-59 -155 -110 -353.5t-71 -354.5q-12 -102 -12 -205v-164h-100v96q0 148 14 272.5t66 336.5q36 147 77 270.5t70 190.5t70 155q5 9 8 15.5t6 13.5h-459z" />
<glyph unicode="8" horiz-adv-x="724" d="M84 305v248q0 46 10 98q9 40 27 69t43.5 47t39.5 25.5t38 16.5q-38 17 -74 45q-31 26 -46.5 64t-16.5 55t-1 47v201q0 62 17 108q21 53 81.5 92t162.5 39q119 0 184 -49q36 -24 55 -68q23 -57 23 -149v-168q0 -54 -11 -90q-14 -52 -46.5 -77t-92.5 -48q45 -17 72.5 -35.5 t50.5 -52.5q28 -40 36.5 -86.5t8.5 -110.5v-264q0 -54 -12 -98q-13 -48 -42 -83.5t-58.5 -53t-66.5 -27.5t-58 -12t-41 -2q-69 0 -132 24.5t-100 75.5q-33 44 -42 95t-9 124zM178 319q0 -94 18.5 -142t63.5 -75q51 -28 107 -28q60 2 104 30q48 28 63 73t15 112v254 q0 31 -2 47q-7 92 -70 139q-45 35 -108 35q-59 0 -99 -23q-56 -27 -74 -73t-18 -117v-232zM199 1016q0 -45 10 -70q19 -45 62.5 -68.5t93.5 -23.5q55 0 98.5 27.5t60.5 79.5q8 24 8 73v148q0 76 -12 108q-30 84 -162 84q-51 0 -88 -18q-43 -21 -57 -55t-14 -87v-198z" />
<glyph unicode="9" horiz-adv-x="724" d="M68 301v88h94v-113q0 -37 8 -69q4 -22 13.5 -41t27.5 -40t51 -33.5t76 -12.5q61 0 108 24q55 28 73 73.5t18 115.5v369q-25 -25 -52 -41q-75 -48 -166 -48q-23 0 -48.5 3t-70.5 22.5t-73 52.5q-35 40 -46 88t-11 113v256q0 47 1 72t7 65.5t17 66t33.5 54t55.5 49.5 q73 45 170 45q153 0 224 -94q26 -33 38 -80.5t13.5 -76.5t1.5 -89v-819q0 -86 -19 -141q-18 -57 -56.5 -95.5t-84.5 -53.5t-75.5 -20t-55.5 -5q-20 0 -39.5 1.5t-54.5 10.5t-63 24t-55.5 46.5t-41.5 74.5q-18 53 -18 158zM166 831q0 -34 12 -71q17 -45 54 -70.5t85 -25.5 q49 0 88.5 15t63 39t37 45.5t20.5 43.5q13 44 13 125v194q0 101 -21 152q-17 36 -59 63t-111 27q-15 0 -34 -3.5t-48 -13.5t-53.5 -34.5t-36.5 -59.5q-10 -33 -10 -75v-351z" />
<glyph unicode=":" horiz-adv-x="382" d="M188 0v184h91v-184h-91zM188 745v187h91v-187h-91z" />
<glyph unicode=";" horiz-adv-x="382" d="M186 0v186h93v-186q0 -72 -18 -113.5t-75 -70.5v45q25 17 37 41t13.5 41.5t1.5 56.5h-52zM186 745v187h95v-187h-95z" />
<glyph unicode="&#x3c;" horiz-adv-x="1144" d="M182 553v92l731 399v-100l-639 -340l639 -342v-106z" />
<glyph unicode="=" horiz-adv-x="1144" d="M174 416v86h797v-86h-797zM174 711v86h797v-86h-797z" />
<glyph unicode="&#x3e;" horiz-adv-x="1144" d="M231 156v98l639 342l-639 342v104l732 -395v-92z" />
<glyph unicode="?" horiz-adv-x="724" d="M144 1110q0 22 1.5 63t5.5 67.5t13 58.5t22 55q67 116 211 116q73 0 130 -34t87 -99q22 -48 29.5 -107t7.5 -173q0 -103 -17 -164t-71 -141q-9 -14 -30 -42.5t-36.5 -51.5t-27.5 -44q-23 -45 -23 -98v-160h-98v170v13v13t0.5 12t1 13l2 12t4 14.5t5.5 14.5t7.5 16.5 t10 17.5t12.5 20l49 71q8 11 23.5 34t23.5 34q24 36 34.5 56t22 66.5t11.5 106.5q0 70 -2 105q-1 36 -4 63t-11.5 61.5t-28 60t-48.5 40.5q-32 14 -68 14q-46 0 -80 -26q-33 -25 -50.5 -73t-20 -82.5t-2.5 -90.5q0 -43 4 -125h-97q0 13 -1.5 57t-1.5 66zM348 0v184h98v-184 h-98z" />
<glyph unicode="@" horiz-adv-x="1798" d="M117 475q0 201 75 383.5t202 314t302.5 209.5t368.5 78q278 0 441 -160t163 -430q0 -208 -90 -399q-69 -146 -171.5 -233.5t-203.5 -87.5q-71 0 -115.5 46t-44.5 119q0 4 1.5 14.5t1.5 20.5q-130 -196 -306 -196q-120 0 -190 85.5t-70 233.5q0 150 58.5 284.5t156 215 t205.5 80.5q54 0 98.5 -21t73 -55t45.5 -66t27 -65l37 160h94l-66 -295q-29 -121 -51 -240q-10 -65 -10 -119q0 -114 92 -114q54 0 109 49q110 98 174.5 256.5t64.5 330.5q0 235 -144 373.5t-388 138.5q-230 0 -427 -122.5t-312 -331.5t-115 -453q0 -292 191.5 -473.5 t500.5 -181.5q84 0 158 14q170 28 329 121q69 41 109.5 71.5t105.5 92.5l48 -53q-320 -320 -748 -320q-228 0 -405.5 91.5t-276 256.5t-98.5 377zM580 471q0 -109 52 -174.5t140 -65.5q81 0 148 51t106.5 129t60.5 162t21 158q0 107 -55.5 176.5t-141.5 69.5t-163 -70 t-122.5 -187t-45.5 -249z" />
<glyph unicode="A" horiz-adv-x="768" d="M49 0l264 1454h140l262 -1454h-107l-73 440h-304l-75 -440h-107zM248 535h268l-113 671q-8 45 -20 135q-4 -40 -16 -124z" />
<glyph unicode="B" horiz-adv-x="768" d="M121 0v1446h274h10.5h15.5t19 -0.5t23 -2.5t23.5 -4.5t25.5 -7.5t24.5 -11t24 -15.5t21.5 -20.5q49 -56 49 -165v-215q0 -68 -10 -99q-9 -29 -27.5 -51.5t-33 -33.5t-40.5 -20.5t-32 -10.5t-27 -5q100 -10 153 -55q31 -26 47 -65t18.5 -69t2.5 -79v-248 q0 -69 -14.5 -118.5t-57.5 -88.5q-70 -61 -200 -61h-289zM221 823h98q52 0 99 13q114 34 114 178v12v174q0 57 -10 84q-10 26 -28.5 42.5t-46.5 23.5t-48 8.5t-51 1.5h-127v-537zM223 88h170q85 0 133 33q34 27 45 68t11 124v205q0 58 -13 98q-14 38 -40 63t-61.5 36.5 t-67.5 15.5t-74 4h-103v-647z" />
<glyph unicode="C" horiz-adv-x="768" d="M106 328v784q0 59 1.5 88t14 73t38.5 79q77 108 233 108q88 0 156.5 -37t97.5 -112q21 -54 21 -129v-203h-99v96q0 94 -4.5 138.5t-21.5 76.5q-15 31 -54 53q-45 25 -94 25q-58 0 -104 -29q-86 -51 -86 -198v-713v-35v-41.5t1 -39.5t3.5 -44.5t6.5 -39t10.5 -40 t15.5 -32.5q20 -38 59 -60q45 -24 105 -24q50 0 90 20q86 45 86 174v232h102v-224q0 -82 -18 -135q-58 -162 -277 -162q-61 0 -110 18.5t-79 48t-47 56.5t-26 54q-21 64 -21 174z" />
<glyph unicode="D" horiz-adv-x="811" d="M123 0v1446h125q79 0 132 -6t116 -34t106 -79q58 -69 78 -174t20 -299v-322q0 -84 -2 -129q-7 -107 -33.5 -183t-93.5 -134q-75 -59 -143 -74q-47 -12 -115 -12h-190zM223 90h82q106 0 178 49q69 50 94 136t25 249v332q0 271 -51 367q-47 88 -150 116q-62 15 -102 15h-76 v-1264z" />
<glyph unicode="E" horiz-adv-x="681" d="M121 0v1446h512v-90h-414v-557h340v-88h-340v-621h412v-90h-510z" />
<glyph unicode="F" d="M121 0v1446h510v-90h-412v-557h363v-88h-363v-711h-98z" />
<glyph unicode="G" horiz-adv-x="811" d="M113 373v760q0 81 13.5 142t55.5 103q20 23 47 39q67 45 185 45q64 0 114 -16t80 -44t47 -55t27 -59q10 -39 10 -106v-201h-96v149q0 104 -21 154q-40 92 -167 92q-78 0 -127 -39q-14 -12 -25 -27t-18.5 -26.5t-13 -33t-8 -29.5t-4 -35t-1.5 -31.5v-36.5v-33v-684 q0 -100 5 -149t24 -86q16 -35 55 -66.5t102 -31.5q58 0 111 43q94 78 94 229v231h-213v88h313v-659h-75v115q-20 -30 -37 -47q-82 -88 -205 -88q-67 0 -125 28t-92 82q-33 50 -44 108.5t-11 174.5z" />
<glyph unicode="H" horiz-adv-x="811" d="M121 0v1446h98v-643h373v643h100v-1446h-100v715h-373v-715h-98z" />
<glyph unicode="I" horiz-adv-x="342" d="M119 0v1446h104v-1446h-104z" />
<glyph unicode="J" horiz-adv-x="681" d="M86 248v209h98v-189q0 -43 2 -66.5t16 -54.5t42 -51q34 -26 82 -26q43 0 77 22q64 40 64 146v1208h98v-1182q0 -37 -2 -55q-7 -128 -98 -189q-58 -40 -143 -40q-70 0 -121 28q-115 61 -115 240z" />
<glyph unicode="K" horiz-adv-x="724" d="M119 0v1446h100v-709l361 709h112l-307 -576l311 -870h-108l-264 750l-107 -201v-549h-98z" />
<glyph unicode="L" d="M119 0v1446h100v-1356h377v-90h-477z" />
<glyph unicode="M" horiz-adv-x="1024" d="M111 0l12 1446h147l240 -1247l240 1247h147l14 -1446h-96l-2 1337l-256 -1337h-92l-256 1337l2 -1337h-100z" />
<glyph unicode="N" horiz-adv-x="811" d="M113 0v1446h147l346 -1391l-14 1391h98v-1446h-153l-336 1366l8 -1366h-96z" />
<glyph unicode="O" horiz-adv-x="811" d="M111 309v815q0 101 22 164q30 88 105 132q72 43 164 42h8q112 0 184 -53q36 -28 58.5 -63.5t31 -83.5t10.5 -79.5t2 -88.5v-799q0 -120 -43 -189q-29 -50 -92 -87t-162 -37q-151 0 -225 88q-39 49 -51 105t-12 134zM209 348q0 -115 16 -164q14 -40 59.5 -76t121.5 -36 q67 0 112 34q36 26 55.5 67t23 74.5t3.5 86.5v704q0 96 -7 150.5t-28 93.5q-24 48 -65 68q-38 22 -97 22q-60 0 -110 -31q-84 -54 -84 -196v-797z" />
<glyph unicode="P" horiz-adv-x="768" d="M119 0v1446h225h15q57 0 88.5 -1.5t78 -15t78.5 -40.5q37 -30 55 -77t20.5 -82.5t2.5 -105.5v-163q0 -72 -10 -118t-47 -91q-78 -93 -258 -93h-148v-659h-100zM217 743h164q106 0 156 52q9 9 16 19.5t12 22t8.5 23t5.5 23.5t3.5 22t1.5 20v16.5v12.5v7v124 q0 111 -10.5 161.5t-49.5 80.5q-27 21 -58 28t-95 7h-154v-619z" />
<glyph unicode="Q" horiz-adv-x="811" d="M111 469v653q0 95 16 150q10 34 27.5 63.5t49 61.5t85 50.5t123.5 18.5q24 0 50 -4t67.5 -16.5t78.5 -44t58 -78.5q18 -36 24 -71.5t6 -104.5v-801q0 -85 -14 -146t-57 -114q-16 -21 -56 -51l189 -172l-60 -64l-219 195q-51 -10 -82 -10q-107 0 -178 53q-32 25 -53 59 q-37 55 -46 132t-9 241zM209 424q0 -112 8 -170.5t33 -99.5q23 -39 63 -59.5t86 -20.5q65 0 113 37q53 40 69.5 96.5t16.5 136.5v805q0 65 -14 104q-20 56 -68.5 88.5t-109.5 32.5q-41 0 -74 -12t-53 -28.5t-34.5 -43.5t-21.5 -47.5t-10.5 -50.5t-3.5 -41.5v-31.5v-7v-688z " />
<glyph unicode="R" horiz-adv-x="768" d="M121 0v1446h280q68 0 116 -9.5t89 -41.5q80 -63 80 -201v-225q0 -59 -8 -92q-28 -103 -139 -150q-31 -11 -54 -16l265 -711h-107l-264 705h-158v-705h-100zM221 791h185q51 0 86 12q88 30 88 141v223q0 60 -12.5 104.5t-53.5 67.5q-41 21 -104 21h-189v-569z" />
<glyph unicode="S" horiz-adv-x="768" d="M86 268v205h100v-117q0 -1 -1 -45t1 -45q11 -200 213 -200q64 0 105 26q80 49 80 211q0 77 -13.5 122t-38.5 85q-34 52 -87 109t-76 77q-115 112 -166 183q-82 110 -82 268q0 67 8 108q36 211 264 211q104 0 170 -41q29 -19 49 -47t30 -53.5t15 -64t6 -62.5t1 -65v-105 h-99v129q0 67 -6 96q-21 127 -164 127q-63 0 -102 -24q-72 -46 -72 -193q0 -97 26.5 -154t98.5 -139q32 -39 98 -108q111 -111 148 -158q52 -65 72 -130t20 -155q0 -159 -51 -235q-73 -107 -246 -107q-103 0 -166 35q-24 15 -47 35q-49 43 -72 105q-16 47 -16 116z" />
<glyph unicode="T" d="M14 1356v90h611v-90h-256v-1356h-103v1356h-252z" />
<glyph unicode="U" horiz-adv-x="811" d="M117 342v1104h98v-1120q0 -132 33 -183q48 -73 160 -73q76 0 118 34q17 13 28.5 26.5t19 36.5t11 37.5t5.5 52.5t2 55.5v70.5v1063h100v-1159q0 -90 -20 -146q-17 -45 -47.5 -78.5t-60 -49.5t-66.5 -25.5t-57 -11t-40 -1.5q-110 0 -182 54q-25 16 -45 47q-22 29 -34.5 59 t-17 73.5t-5 60t-0.5 73.5z" />
<glyph unicode="V" horiz-adv-x="724" d="M55 1446h105l194 -1233l211 1233h103l-262 -1446h-105z" />
<glyph unicode="W" horiz-adv-x="1150" d="M43 1446h102l195 -1229l186 1229h107l188 -1229l189 1229h100l-236 -1446h-108l-186 1243l-187 -1243h-104z" />
<glyph unicode="X" horiz-adv-x="724" d="M49 0l262 797l-202 649h104l156 -549l168 549h104l-219 -651l254 -795h-105l-209 686l-210 -686h-103z" />
<glyph unicode="Y" horiz-adv-x="724" d="M29 1446h106l232 -680l229 680h111l-295 -807v-639h-99v639z" />
<glyph unicode="Z" horiz-adv-x="724" d="M55 0v66l480 1292h-394v88h510v-68l-483 -1288h481v-90h-594z" />
<glyph unicode="[" horiz-adv-x="468" d="M109 -289v1735h290v-74h-202v-1583h202v-78h-290z" />
<glyph unicode="\" d="M70 1446h90l415 -1446h-96z" />
<glyph unicode="]" horiz-adv-x="468" d="M66 1372v74h294v-1735h-288v78h200v1583h-206z" />
<glyph unicode="^" horiz-adv-x="1144" d="M154 731l368 715h96l371 -715h-104l-316 623l-309 -623h-106z" />
<glyph unicode="_" horiz-adv-x="1024" d="M-20 -317h1064v-89h-1064v89z" />
<glyph unicode="`" horiz-adv-x="468" d="M45 1389h199l180 -224h-66z" />
<glyph unicode="a" d="M57 242q0 89 37 161q17 31 40 57t54 47.5t54.5 35t64 34.5t58.5 31q54 31 90 60v116q0 39 -1 57.5t-12.5 47.5t-35.5 45q-25 18 -82 18q-89 0 -117 -65q-20 -41 -20 -133q0 -19 1 -41h-88q0 96 4 135t21 76q50 112 211 112q66 0 121 -28q55 -31 71.5 -78t16.5 -121v-692 q1 -11 5.5 -18t8.5 -10.5t15 -5t14.5 -1.5h17.5v-82q-51 0 -77 6t-44 23q-19 16 -28 51q-66 -52 -120 -68q-38 -12 -79 -12q-101 0 -151 69t-50 173zM145 240q0 -20 3.5 -40t15.5 -50t42 -49t75 -19q55 0 93.5 24t82.5 72v393q-31 -25 -66 -43q-20 -12 -56.5 -31t-45.5 -24 q-74 -45 -109 -98.5t-35 -134.5z" />
<glyph unicode="b" horiz-adv-x="681" d="M106 0v1446h87v-504q1 1 13.5 16t20.5 23q59 61 156 61q55 0 96 -22q33 -17 55 -45t32 -65t13 -68t3 -72v-532q0 -87 -39 -146q-22 -37 -66 -67.5t-112 -30.5q-62 0 -107 29q-28 21 -39 32q-6 7 -20 31v-86h-93zM195 276q0 -72 34 -129q49 -75 129 -75q67 0 105 57 q33 47 33 139v508v16.5t-2.5 27.5t-7 36.5t-15 36.5t-24.5 34.5t-37 23.5t-52 10q-55 0 -95.5 -30t-57.5 -83q-10 -38 -10 -74v-498z" />
<glyph unicode="c" d="M82 295v475q0 68 16 117q16 48 46.5 79.5t67.5 44t60 16t47 3.5q236 0 236 -276v-90h-86v79q0 51 -8 91q-27 120 -139 120q-63 0 -96 -31t-44 -67q-12 -35 -12 -92v-442q0 -105 14 -150q33 -96 148 -96q60 0 91.5 28t41.5 62q10 31 10 78v149h88v-133q0 -80 -12 -117 q-23 -77 -87.5 -113t-150.5 -36q-77 0 -135 39q-43 28 -65.5 75.5t-26.5 86t-4 100.5z" />
<glyph unicode="d" horiz-adv-x="681" d="M98 252v518q0 159 90 223q48 37 117 37q18 0 34.5 -2t30.5 -7t25.5 -9.5t23 -12.5t18.5 -13t16.5 -14.5t13 -13.5t11.5 -13.5t9 -10.5v512h86v-1446h-81v109q-9 -20 -33 -48q-55 -69 -156 -69q-107 0 -162 80q-43 61 -43 180zM184 268q0 -59 10 -98.5t44 -69.5 q37 -30 88 -30q63 0 106.5 43.5t54.5 105.5v547q0 1 -2.5 15t-5 25.5t-9 30t-14.5 33.5t-22 31t-31 27q-36 20 -77 20q-48 0 -83.5 -29t-49.5 -75q-9 -28 -9 -76v-500z" />
<glyph unicode="e" d="M88 250v541q0 53 12 96q8 26 21.5 49t38.5 47t66.5 38.5t95.5 14.5q132 0 196 -90q20 -31 29.5 -77t10.5 -72.5t1 -83.5v-207h-385v-254q0 -43 8 -74q29 -100 146 -100q63 0 102 37q21 21 29 45q3 7 5 14.5t3.5 17.5t2.5 17t1.5 19.5t1 20t0.5 24v25v29.5v31h86v-116 q0 -52 -9 -88.5t-36 -71.5q-63 -84 -192 -84q-48 0 -89 12q-32 9 -71 40t-58 85q-16 41 -16 115zM174 580h297v188q0 118 -57 162q-39 28 -90 28q-55 0 -91 -28q-37 -29 -48 -69.5t-11 -100.5v-180z" />
<glyph unicode="f" horiz-adv-x="382" d="M35 948v82h123v244q0 105 84 149q41 23 98 23q19 0 51 -4v-80q-16 2 -30 2q-94 0 -115 -76q-4 -18 -4 -53v-205h127v-82h-131v-948h-86v948h-117z" />
<glyph unicode="g" horiz-adv-x="681" d="M94 -104h88q0 -2 1 -15.5t4.5 -30t9.5 -30.5q32 -60 127 -60q12 0 28 2.5t41 10t47.5 26.5t34.5 47q12 27 12 76v170q-1 -1 -10.5 -11t-14 -14t-16.5 -14t-20.5 -15.5t-23 -13.5t-28 -12t-31.5 -7t-36 -3q-61 0 -110 31q-27 16 -45 40t-27.5 46t-14 55.5t-5.5 54.5t-1 58 v520q0 57 15 106q12 34 33.5 59.5t43 38t48 19.5t41.5 8.5t30 1.5q107 0 172 -94v84h88v-1079q0 -80 -14 -121q-27 -76 -91 -115t-148 -39q-64 0 -122.5 26t-82.5 79q-18 37 -23 115zM190 283q0 -41 2 -65t14.5 -56t37.5 -51q35 -25 84 -25q32 0 70 18t65 64q14 25 26 72 v577q-11 62 -54 103q-42 41 -102 41h-3q-42 0 -76 -21q-22 -15 -36 -35.5t-19.5 -48t-7 -47t-1.5 -51.5v-475z" />
<glyph unicode="h" horiz-adv-x="681" d="M111 0v1446h88l2 -496q1 1 6 6.5t7 8t8 8.5t10 9.5t10.5 9.5t13 10t14.5 9t16.5 9t18.5 8q41 14 80 14q32 0 74 -12q89 -32 116 -125q11 -36 11 -88v-817h-88v764q0 36 -2 58t-9.5 51.5t-27.5 48.5t-51 28q-18 6 -46 6q-56 0 -93 -29t-52 -57q-18 -30 -18 -51v-819h-88z " />
<glyph unicode="i" horiz-adv-x="299" d="M104 0v1030h86v-1030h-86zM104 1151v160h89v-160h-89z" />
<glyph unicode="j" horiz-adv-x="342" d="M14 -246q29 7 45 14.5t35 26.5q23 23 34.5 55.5t13 55t1.5 65.5v13v1046h86v-1093v-14.5v-18.5t-0.5 -20.5t-3 -24.5t-5.5 -25t-9 -27.5t-13.5 -26.5t-18.5 -27t-25 -25q-18 -18 -66 -41q-34 -14 -74 -21v88zM143 1149v160h86v-160h-86z" />
<glyph unicode="k" d="M106 0v1446h87v-899l296 483h101l-240 -393l264 -637h-96l-225 543l-98 -160v-383h-89z" />
<glyph unicode="l" horiz-adv-x="299" d="M106 0v1446h87v-1446h-87z" />
<glyph unicode="m" horiz-adv-x="1067" d="M109 0v1030h88v-86q11 13 32 35q24 22 66.5 42.5t93.5 20.5q42 -1 74 -13.5t53 -36t29.5 -37t19.5 -35.5q13 18 19 26.5t27.5 30.5t41 34t52 22.5t67.5 10.5q17 0 35 -3.5t44 -12.5t50 -31.5t39 -54.5q17 -35 21 -76.5t4 -136.5v-729h-88v737q0 100 -9.5 142t-48.5 65 q-28 17 -71 17q-86 -3 -136 -68q-18 -26 -32 -59v-834h-88v813q0 38 -9 64q-12 40 -46 63t-77 23q-70 0 -124 -54q-22 -22 -41 -59v-850h-86z" />
<glyph unicode="n" horiz-adv-x="681" d="M113 0v1030h86v-98q15 25 39 49q61 61 151 61q66 -2 116 -35t68 -96q11 -40 11 -84v-827h-86v825l-3 24q-3 24 -8 40q-29 78 -112 78h-4q-91 0 -146 -78q-12 -16 -26 -51v-838h-86z" />
<glyph unicode="o" d="M80 248v540q0 52 8 86.5t35 69.5q65 92 205 92q110 0 172 -59q30 -30 47 -76q14 -41 14 -119v-491q0 -85 -14 -133q-15 -52 -46.5 -88t-69.5 -50t-64 -19t-50 -5q-71 0 -132.5 32.5t-86.5 94.5q-18 44 -18 125zM168 250q0 -41 6 -68q13 -51 51 -76.5t92 -25.5 q107 0 142 88q14 35 14 90v516q0 53 -11.5 90t-47.5 62q-32 24 -86 24q-63 0 -99 -28q-29 -21 -43 -52.5t-16 -54.5t-2 -67v-498z" />
<glyph unicode="p" horiz-adv-x="681" d="M111 -334v1364h88v-90q2 3 12.5 16.5t17.5 20.5q70 63 160 63q67 0 115 -39q24 -19 40 -45.5t23.5 -48.5t11.5 -60t4.5 -56t0.5 -60v-500q0 -48 -17 -100q-22 -64 -73 -100.5t-119 -36.5q-77 0 -135 47q-18 14 -41 43v-418h-88zM199 193q9 -29 20 -46q23 -33 60 -52 t79 -19t76 20q28 18 43 52.5t17 60t2 67.5v525q0 22 -7 57q-12 47 -46 75t-81 28q-57 -1 -93.5 -29.5t-51.5 -57.5q-13 -21 -18 -47v-634z" />
<glyph unicode="q" horiz-adv-x="681" d="M100 256v506q0 40 2 63q8 104 70 164q53 53 141 53q93 0 144 -57q7 -7 12.5 -14.5t9.5 -15t6 -9.5v84h84v-1364h-86v428q-61 -100 -186 -100q-99 0 -154 76q-25 34 -34 71.5t-9 114.5zM186 334q0 -79 3 -116.5t16 -67.5q36 -78 117 -78q52 0 91.5 32t57.5 80q7 23 14 72 v492q0 1 -1 13.5t-2 23t-4 28t-9 33t-14 32.5t-21.5 32t-30.5 26q-39 25 -77 25q-57 0 -99 -46q-19 -23 -28.5 -53t-11 -50.5t-1.5 -59.5v-418z" />
<glyph unicode="r" horiz-adv-x="425" d="M109 0v1030h84v-180q23 52 61 96q61 65 154 111v-117q-57 -17 -80 -31q-79 -46 -133 -182v-727h-86z" />
<glyph unicode="s" horiz-adv-x="598" d="M57 274v88h86v-59q0 -40 0.5 -57.5t7.5 -52t21 -56.5q14 -24 41 -37q39 -20 90 -20q47 0 74 12q78 33 78 160q0 53 -17.5 92.5t-36.5 58.5t-68 60q-9 8 -14 12q-77 61 -147 131q-76 86 -76 207q0 221 217 221q35 0 65 -6.5t50.5 -16t37.5 -26.5t27 -30.5t17.5 -36 t10.5 -35.5t5 -37t2 -32v-28v-69h-88v74q0 58 -13.5 97t-57.5 56q-23 8 -58 8q-65 0 -96 -32t-31 -99q0 -49 8 -78.5t35 -60.5q37 -46 154 -143q62 -50 90 -78q72 -77 72 -209q0 -171 -117 -229q-62 -27 -123 -27q-87 0 -149 37q-24 16 -45 37q-14 19 -21 34q-31 64 -31 170 z" />
<glyph unicode="t" horiz-adv-x="382" d="M18 948v82h109v266h88v-266h156v-82h-156v-811q0 -59 78 -59q24 0 78 4v-82q-47 -5 -86 -5q-29 0 -51 3q-54 6 -82 35q-25 29 -25 84v831h-109z" />
<glyph unicode="u" horiz-adv-x="681" d="M102 236v794h86v-762q0 -148 78 -186q20 -12 58 -12q80 0 125 63q19 27 34 70v827h88v-1030h-88v96q-28 -35 -32 -39q-66 -63 -154 -63q-45 0 -86.5 20t-67.5 56q-41 54 -41 166z" />
<glyph unicode="v" horiz-adv-x="555" d="M29 1030h90l155 -895l152 895h94l-196 -1030h-101z" />
<glyph unicode="w" horiz-adv-x="894" d="M29 1030h88l141 -883l156 883h71l140 -883l155 883h90l-198 -1030h-88l-135 842l-148 -842h-90z" />
<glyph unicode="x" d="M25 0l223 537l-205 493h94l160 -405l164 405h94l-207 -483l219 -547h-96l-174 463l-176 -463h-96z" />
<glyph unicode="y" horiz-adv-x="598" d="M18 -336l2 86q21 -2 40 -2q109 0 151 84q11 22 18 57l27 119l-225 1022h88l180 -856l182 856h92l-264 -1147q-13 -53 -27.5 -87.5t-43.5 -65.5t-72 -46.5t-71 -17.5t-77 -2z" />
<glyph unicode="z" horiz-adv-x="598" d="M74 0v78l354 866h-326v86h430v-72l-358 -872h356v-86h-456z" />
<glyph unicode="{" horiz-adv-x="724" d="M158 547v67q47 10 71 27q62 45 62 246v180q0 62 6.5 112.5t25 100t48.5 83.5t79.5 56.5t116.5 26.5v-64q-89 -22 -129.5 -64t-52.5 -132q-11 -79 -6 -179t-6 -214t-47 -158q-27 -34 -72 -51v-6q49 -20 78 -64q27 -37 37.5 -113.5t8.5 -150.5t-1.5 -159t8.5 -128 q17 -85 57.5 -125t124.5 -59v-66q-85 7 -142.5 42t-83 86t-39 117t-11.5 134t1.5 137.5t-2 127.5t-20 104t-55.5 67q-33 17 -57 19z" />
<glyph unicode="|" horiz-adv-x="468" d="M190 -512v2044h89v-2044h-89z" />
<glyph unicode="}" horiz-adv-x="724" d="M158 -221q49 10 84 31t55.5 47.5t32 65.5t15 75.5t3.5 85.5v84v41.5v52.5t1 51t3.5 58t7 50t11.5 50t16 37q31 51 84 70v6q-41 14 -70 51q-30 33 -42.5 111t-11 156t1 166t-8.5 128q-17 86 -56 125t-126 61v64q67 -4 116.5 -25.5t78 -55.5t47 -79t23 -95.5t7.5 -105 t0 -106.5v-57q0 -238 66 -283q27 -18 71 -25v-67q-46 -8 -69 -25q-68 -46 -68 -248q0 -23 1 -70t1 -74.5t-1.5 -72.5t-6 -73t-13.5 -66.5t-22 -63t-34 -52t-48.5 -44t-65 -29t-83.5 -16.5v66z" />
<glyph unicode="~" horiz-adv-x="1163" d="M135 567q51 62 86 90q65 56 160 56q72 0 156 -37l118 -51q84 -37 125 -37q44 0 83.5 24.5t94.5 87.5l68 -55q-34 -42 -57 -62.5t-56 -41.5q-64 -41 -137 -41q-74 0 -190 53l-54 25q-98 45 -159 45q-43 0 -78.5 -21.5t-79.5 -75.5l-12 -12z" />
<glyph unicode="&#xa1;" horiz-adv-x="382" d="M96 1266v180h92v-180h-92zM98 0v788l19 279h53l29 -299v-768h-101z" />
<glyph unicode="&#xa2;" d="M82 295v475q0 68 16 117.5t45.5 77.5t62.5 42t77 21v127h59v-125q65 -6 109 -30.5t65.5 -64t30 -82t8.5 -99.5v-90h-86v77q0 37 -1.5 60.5t-15 60.5t-38.5 60q-37 32 -92 32q-44 0 -75 -18t-45.5 -40.5t-22.5 -54t-8.5 -46t-0.5 -29.5v-2v-459q0 -39 1.5 -64t10.5 -59.5 t25.5 -55t48 -35.5t76.5 -15q143 0 143 168v149h88v-133q0 -89 -21 -138q-46 -111 -188 -126v-141h-59v139q-82 10 -125 45q-52 40 -70 96.5t-18 159.5z" />
<glyph unicode="&#xa3;" horiz-adv-x="817" d="M61 0v100q81 15 140 39q184 78 184 295q0 64 -23 125q-13 34 -57 94h-231v76h182q-44 76 -57 145t-13 222q0 133 24 205.5t83 113.5q64 45 160 45q165 0 219 -133q18 -47 24 -92q6 -55 6 -119v-121h-94v29q0 116 -2.5 161t-11.5 83q-24 106 -150 106q-108 0 -143 -84 q-20 -49 -20 -188q0 -115 6 -174t24 -103q12 -30 56 -96h247v-76h-198q37 -56 52 -104t15 -109q0 -228 -207 -340q61 -3 91 -6q32 -2 78 -6t74 -6t42 -2q12 0 105 6q36 4 104 18v-90q-102 -22 -199 -22q-9 0 -14.5 0.5t-10 1t-20.5 2t-41 2.5l-180 10q-55 4 -94 4 q-74 0 -150 -12z" />
<glyph unicode="&#xa4;" horiz-adv-x="1267" d="M115 217l141 145q-113 143 -113 334q0 183 111 332l-139 152l73 67l136 -145q140 119 313 119q167 0 307 -117l139 143l68 -71l-137 -148q110 -150 110 -336q0 -173 -112 -330l139 -153l-72 -72l-135 152q-78 -65 -149.5 -92t-163.5 -27q-88 0 -161 28t-146 89l-140 -144 zM244 696q0 -189 113.5 -314.5t283.5 -125.5q163 0 272 125.5t109 312.5q0 191 -110 316t-277 125q-166 0 -278.5 -126.5t-112.5 -312.5z" />
<glyph unicode="&#xa5;" horiz-adv-x="724" d="M29 1446h106l234 -682l241 682h97l-224 -610h176v-88h-206l-33 -89v-34h239v-88h-247v-537h-99v537h-247v88h241v34l-31 89h-210v88h178z" />
<glyph unicode="&#xa6;" horiz-adv-x="468" d="M190 389h89v-901h-89v901zM190 631v899h89v-899h-89z" />
<glyph unicode="&#xa7;" horiz-adv-x="768" d="M92 125v108h92v-110q0 -92 10 -125q17 -50 68 -82q48 -29 117 -29q112 0 156.5 54t44.5 165q0 53 -4 82.5t-22.5 55t-40.5 41t-73 45.5q-22 13 -71.5 40t-80 44.5t-72 48.5t-65.5 59t-41.5 68.5t-17.5 85.5q0 143 131 233q-61 50 -84.5 104t-23.5 136q0 158 69 236.5 t222 78.5q78 0 144 -27.5t97 -88.5q23 -47 23 -127v-166h-90v149q0 92 -42.5 132t-136.5 40q-109 0 -152.5 -57.5t-43.5 -169.5q0 -70 26.5 -112t87.5 -83q31 -21 80 -47t87 -45.5t80.5 -49t70.5 -59.5t46.5 -74.5t18.5 -96.5q0 -69 -24.5 -126t-73.5 -118 q41 -41 54.5 -90.5t13.5 -118.5q0 -158 -65.5 -241t-223.5 -83q-164 0 -227.5 78.5t-63.5 241.5zM180 692q0 -61 35 -104q14 -17 45.5 -40.5t75.5 -50t79 -46.5t82 -46t58 -32q57 71 57 168q0 30 -5 56t-12 45t-22 37.5t-26 29.5t-34 26.5t-36.5 23t-43 24t-44.5 24.5 q-109 64 -113 67q-48 -25 -72 -74.5t-24 -107.5z" />
<glyph unicode="&#xa8;" horiz-adv-x="468" d="M84 1198v158h98v-158h-98zM287 1198v158h98v-158h-98z" />
<glyph unicode="&#xa9;" horiz-adv-x="1705" d="M125 727q0 120 36 231t103 200t156 155.5t201 102.5t233 36q200 0 367.5 -96t264.5 -262.5t97 -364.5v-10q0 -200 -98 -367t-266 -262.5t-367 -95.5q-150 0 -284.5 57.5t-231.5 155t-154 233.5t-57 287zM190 721q0 -180 89 -332.5t241.5 -241t333.5 -88.5q135 0 258 52 t212 140.5t141.5 211t52.5 256.5q0 185 -87.5 338t-239.5 241t-335 88q-137 0 -260.5 -52t-212 -141t-141 -212t-52.5 -260zM606 528v375q0 104 13 149.5t53 80.5q64 55 172 55q110 0 168 -49q40 -32 52.5 -74t12.5 -139v-72h-100v70q0 59 -4.5 84.5t-18.5 42.5 q-28 39 -112 39q-75 0 -105 -35q-18 -18 -23 -43t-5 -90v-414q0 -64 5 -88.5t23 -44.5q29 -33 105 -33q84 0 112 39q14 15 18.5 41t4.5 84v80h100v-80q0 -99 -12.5 -141t-52.5 -74q-60 -47 -168 -47q-111 0 -172 55q-40 34 -53 79.5t-13 149.5z" />
<glyph unicode="&#xaa;" horiz-adv-x="382" d="M33 1004q0 23 4.5 44t9 35t17 30t18 23t24 20t22 15.5t26.5 14.5l22 12q13 7 25 13.5t17.5 10t16 10t25.5 17.5v54q0 19 -0.5 28t-3.5 24.5t-10 23t-20 14t-33 6.5t-33.5 -6.5t-21 -16.5t-11.5 -29.5t-5 -36.5t-1 -46h-64v41q0 153 138 155q60 0 84 -20q10 -7 18 -16 t13 -16t8.5 -18t5.5 -16.5t3 -18.5t1 -16.5v-18.5v-17v-355q0 -28 32 -28v-58q-4 0 -12 -1t-12 -1q-50 0 -76 37q-56 -37 -104 -37q-60 0 -91.5 44t-31.5 100zM102 1008q0 -40 19.5 -61t48.5 -21q37 -2 90 45v200q-92 -41 -125 -75t-33 -88z" />
<glyph unicode="&#xab;" horiz-adv-x="768" d="M55 600l256 205h125l-258 -203l250 -207h-123zM344 600l256 205h121l-250 -205l240 -205h-115z" />
<glyph unicode="&#xac;" horiz-adv-x="1144" d="M135 561v84h838v-463h-92v379h-746z" />
<glyph unicode="&#xad;" horiz-adv-x="507" d="M72 555v86h362v-86h-362z" />
<glyph unicode="&#xae;" horiz-adv-x="1705" d="M125 727q0 120 36 231t103 200t156 155.5t201 102.5t233 36q200 0 367.5 -96t264.5 -262.5t97 -364.5v-10q0 -200 -98 -367t-266 -262.5t-367 -95.5q-150 0 -284.5 57.5t-231.5 155t-154 233.5t-57 287zM190 721q0 -180 89 -332.5t241.5 -241t333.5 -88.5q135 0 258 52 t212 140.5t141.5 211t52.5 256.5q0 185 -87.5 338t-239.5 241t-335 88q-137 0 -260.5 -52t-212 -141t-141 -212t-52.5 -260zM649 258v920h144q69 0 96 -2q85 -3 133 -39q80 -61 80 -207q0 -103 -49 -174q-22 -31 -48 -47.5t-71 -28.5l201 -422h-115l-193 410h-73v-410h-105z M754 758h47q107 0 145 28q49 40 49 140q0 94 -43 131q-19 15 -47.5 20.5t-87.5 5.5h-63v-325z" />
<glyph unicode="&#xaf;" horiz-adv-x="468" d="M41 1198v86h387v-86h-387z" />
<glyph unicode="&#xb0;" horiz-adv-x="724" d="M72 1233q0 120 85 205.5t205 85.5q121 0 206 -85.5t85 -205.5q0 -121 -84.5 -206t-206.5 -85q-121 0 -205.5 84.5t-84.5 206.5zM164 1233q0 -82 57.5 -141.5t140.5 -59.5t142 59t59 142t-59 141t-142 58q-82 0 -140 -58.5t-58 -140.5z" />
<glyph unicode="&#xb1;" horiz-adv-x="1144" d="M174 0v86h797v-86h-797zM174 561v86h356v377l86 -2v-375h355v-86h-355v-375h-86v375h-356z" />
<glyph unicode="&#xb2;" horiz-adv-x="468" d="M51 543v71q4 27 17.5 53t48.5 81q27 40 73 105t61.5 89.5t37.5 71t28.5 90t6.5 104.5v6v8q0 23 -0.5 37t-5 39.5t-13 40.5t-26.5 27t-43 12q-91 0 -91 -123v-110h-73v110q0 30 1.5 47.5t8 45t23.5 48.5t45 38q32 18 88 18q40 0 70 -13t46 -33.5t27.5 -44.5t13.5 -47 t4 -41.5t0 -25.5v-4q0 -124 -8 -164q-5 -27 -16 -56.5t-21 -51.5t-32 -57t-32.5 -51t-39.5 -57.5t-37 -53.5l-15 -21t-13.5 -19l-10.5 -15t-9 -14t-7 -11.5t-7 -11.5t-5.5 -10t-5.5 -11t-4.5 -11.5t-4.5 -13.5h268v-71h-348z" />
<glyph unicode="&#xb3;" horiz-adv-x="468" d="M46.5 737.5q-2.5 21.5 0.5 31.5v3v2q0 12 1 29.5t1 27.5h74q0 -43 0.5 -65t3.5 -53.5t10 -47.5t19 -33t31 -23.5t46 -6.5q111 0 111 150v84q0 39 -10.5 67t-25 43.5t-41.5 25t-49 12.5t-58 5v76q168 0 168 135v68q0 1 0.5 7t0.5 12t-1 15t-3 17t-5.5 17t-10 16t-15 13 t-21.5 9.5t-29 3.5q-49 0 -66.5 -26.5t-19.5 -75.5l-2 -102h-74v92v24t3 30t8 37t17 34t28.5 32t43.5 20t62 9q53 0 88 -20q44 -27 59 -62.5t15 -105.5q0 -110 -19 -156t-90 -78q68 -28 95.5 -70t27.5 -135q0 -83 -2.5 -119.5t-19 -77t-52.5 -67.5q-42 -31 -113 -31 q-46 0 -81.5 15t-54 38t-31.5 51.5t-15 55t-4.5 48z" />
<glyph unicode="&#xb4;" horiz-adv-x="468" d="M51 1161l172 223h195l-293 -223h-74z" />
<glyph unicode="&#xb5;" horiz-adv-x="681" d="M102 -334v1364h86v-786q0 -83 35.5 -128.5t100.5 -45.5q57 0 92.5 30t66.5 103v827h86v-880q0 -45 8.5 -57.5t38.5 -12.5h19v-82h-10q-77 0 -104.5 18.5t-33.5 73.5q-67 -94 -174 -94q-78 0 -125 55v-385h-86z" />
<glyph unicode="&#xb6;" horiz-adv-x="1284" d="M190 1057q0 127 61.5 223t170.5 137q77 29 196 29h396v-86h-68v-1702h-90v1702h-276v-1702h-93v1034q-141 19 -219 115t-78 250z" />
<glyph unicode="&#xb7;" horiz-adv-x="299" d="M102 500v184h91v-184h-91z" />
<glyph unicode="&#xb8;" horiz-adv-x="468" d="M70 -266l39 47q75 -41 110 -41q39 1 56.5 23t17.5 44t-12 39q-7 9 -17 17t-20 12.5t-21.5 8.5t-19 5.5t-15.5 2.5l-8 2l10 159h68l-6 -104q88 -24 125 -80q22 -31 22 -70q-1 -19 -8 -38.5t-22.5 -40.5t-45 -34.5t-69.5 -13.5q-34 0 -68.5 10t-56 20.5t-59.5 31.5z" />
<glyph unicode="&#xb9;" horiz-adv-x="468" d="M88 1249v72q70 18 97.5 47t43.5 80h70v-905h-80v762q-60 -45 -131 -56z" />
<glyph unicode="&#xba;" horiz-adv-x="382" d="M45 1017v7v268q0 170 145 170q146 0 146 -155v-283q0 -18 -0.5 -28.5t-4.5 -33.5t-13.5 -38.5t-25.5 -32.5t-43.5 -25t-64.5 -8q-40 1 -68.5 14t-42 29t-20.5 42.5t-7.5 39.5t-0.5 34zM111 1024q0 -98 77 -100q24 -1 40.5 7.5t23.5 22t11 28t3 26t0 15.5v1v268 q0 26 -1.5 40.5t-8.5 32.5t-24 26.5t-44 7.5q-40 -2 -58.5 -25.5t-18.5 -81.5v-268z" />
<glyph unicode="&#xbb;" horiz-adv-x="768" d="M41 391l254 209l-238 201h113l250 -201l-254 -209h-125zM326 391l264 207l-250 203h125l248 -201l-258 -209h-129z" />
<glyph unicode="&#xbc;" horiz-adv-x="1193" d="M88 1249v72q70 18 97.5 47t43.5 80h70v-905h-80v762q-60 -45 -131 -56zM186 -121l752 1731l51 -25l-751 -1728zM760 270v88l231 545h96v-561h107v-72h-107v-270h-75v270h-252zM827 342h185v453z" />
<glyph unicode="&#xbd;" horiz-adv-x="1193" d="M88 1249v72q70 18 97.5 47t43.5 80h70v-905h-80v762q-60 -45 -131 -56zM168 -121l752 1731l51 -25l-752 -1728zM776 0v72q8 33 15.5 49.5t39.5 66.5q30 46 75 109t64 92.5t41.5 75t30 92t7.5 109.5v6q0 84 -15 117q-21 47 -73 47q-27 0 -46 -12t-27.5 -27t-13 -36 t-4.5 -29.5v-17.5v-1v-111h-73v111q0 26 0.5 39.5t5 37.5t12.5 39.5t25 33t41 30.5q45 23 82 16q40 0 70 -13t46 -33t27.5 -44t13.5 -47t4 -41.5t0 -26.5v-4q0 -87 -4.5 -135t-26.5 -104t-50.5 -101t-94.5 -137q-5 -7 -16 -22.5t-15 -21.5t-12.5 -18t-12 -17.5t-9.5 -15 t-9 -15.5t-7 -13.5t-6.5 -14t-4.5 -13.5h270v-72h-350z" />
<glyph unicode="&#xbe;" horiz-adv-x="1193" d="M46.5 737.5q-2.5 21.5 0.5 31.5v3v2q0 12 1 29.5t1 27.5h74q0 -43 0.5 -65t3.5 -53.5t10 -47.5t19 -33t31 -23.5t46 -6.5q111 0 111 150v84q0 39 -10.5 67t-25 43.5t-41.5 25t-49 12.5t-58 5v76q168 0 168 135v68q0 1 0.5 7t0.5 12t-1 15t-3 17t-5.5 17t-10 16t-15 13 t-21.5 9.5t-29 3.5q-49 0 -66.5 -26.5t-19.5 -75.5l-2 -102h-74v92v24t3 30t8 37t17 34t28.5 32t43.5 20t62 9q53 0 88 -20q44 -27 59 -62.5t15 -105.5q0 -110 -19 -156t-90 -78q68 -28 95.5 -70t27.5 -135q0 -83 -2.5 -119.5t-19 -77t-52.5 -67.5q-42 -31 -113 -31 q-46 0 -81.5 15t-54 38t-31.5 51.5t-15 55t-4.5 48zM229 -121l750 1731l53 -25l-753 -1728zM760 270v88l231 545h96v-561h107v-72h-107v-270h-75v270h-252zM827 342h185v453z" />
<glyph unicode="&#xbf;" horiz-adv-x="724" d="M74 391q0 105 17.5 166.5t74.5 142.5q67 95 86 125q23 40 29 107v160h96v-174q0 -46 -9 -75.5t-34 -66.5l-49 -71q-35 -51 -47 -70q-23 -33 -34.5 -54.5t-22.5 -67.5t-11 -105q0 -82 6 -158q13 -139 92 -174q29 -13 64 -13q44 0 80 27q33 25 50.5 73t20 82.5t2.5 90.5 q0 43 -4 125h97q0 -1 1.5 -41.5t2 -49t0.5 -46t-1.5 -52.5t-4 -46.5t-7.5 -49.5t-12.5 -41t-17.5 -41q-68 -117 -211 -117q-73 0 -130 34.5t-87 99.5q-22 48 -29.5 107t-7.5 173zM281 1262v184h96v-184h-96z" />
<glyph unicode="&#xc0;" horiz-adv-x="768" d="M49 0l264 1454h140l262 -1454h-107l-73 440h-304l-75 -440h-107zM123 1802h199l180 -223h-68zM248 535h268l-113 671q-8 45 -20 135q-4 -40 -16 -124z" />
<glyph unicode="&#xc1;" horiz-adv-x="768" d="M49 0l264 1454h140l262 -1454h-107l-73 440h-304l-75 -440h-107zM248 535h268l-113 671q-8 45 -20 135q-4 -40 -16 -124zM260 1575l172 223h193l-291 -223h-74z" />
<glyph unicode="&#xc2;" horiz-adv-x="768" d="M49 0l264 1454h140l262 -1454h-107l-73 440h-304l-75 -440h-107zM174 1575l158 223h104l148 -221h-80l-121 139l-125 -141h-84zM248 535h268l-113 671q-8 45 -20 135q-4 -40 -16 -124z" />
<glyph unicode="&#xc3;" horiz-adv-x="768" d="M49 0l264 1454h140l262 -1454h-107l-73 440h-304l-75 -440h-107zM162 1622q22 34 39 54.5t47.5 39.5t64.5 19q35 0 86 -21q58 -28 84 -28q23 0 39 8q16 9 58 57l32 -27q-22 -36 -32 -47q-29 -39 -55.5 -59.5t-63.5 -20.5q-10 0 -25 3.5t-27.5 8t-36.5 13.5t-40 14 q-26 13 -49 13q-28 0 -47.5 -13.5t-42.5 -40.5zM248 535h268l-113 671q-8 45 -20 135q-4 -40 -16 -124z" />
<glyph unicode="&#xc4;" horiz-adv-x="768" d="M49 0l264 1454h140l262 -1454h-107l-73 440h-304l-75 -440h-107zM178 1616v156h107v-156h-107zM248 535h268l-113 671q-8 45 -20 135q-4 -40 -16 -124zM481 1616v156h107v-156h-107z" />
<glyph unicode="&#xc5;" horiz-adv-x="768" d="M49 0l264 1454h140l262 -1454h-107l-73 440h-304l-75 -440h-107zM248 535h268l-113 671q-8 45 -20 135q-4 -40 -16 -124zM248 1667q0 57 39.5 96t95.5 39q57 0 96 -39.5t39 -95.5q0 -57 -39.5 -96t-95.5 -39q-57 0 -96 39t-39 96zM293 1667q0 -39 26 -65q28 -25 64 -25 q38 0 64 26.5t26 63.5q0 38 -26.5 64t-63.5 26q-38 0 -64 -26.5t-26 -63.5z" />
<glyph unicode="&#xc6;" horiz-adv-x="1024" d="M43 0l371 1446h534v-88h-325v-559h299v-90h-299v-619h360v-90h-461v627h-221l-154 -627h-104zM322 711h200v647h-37z" />
<glyph unicode="&#xc7;" horiz-adv-x="768" d="M106 328v784q0 105 10 148q21 92 99 149q69 51 178 51q16 0 29 -0.5t51.5 -9t67.5 -23t61 -48t49 -79.5q6 -18 10.5 -47.5t5.5 -50.5l1 -20v-203h-99v94q0 8 0.5 33.5t0.5 38.5t-1.5 38t-4.5 40t-9 37t-14.5 35t-22 28.5t-30.5 24t-40.5 14.5t-52.5 6q-35 0 -66 -9.5 t-60 -31.5t-46.5 -65.5t-17.5 -104.5v-727q0 -11 -0.5 -38.5t-0.5 -44.5t1.5 -46.5t4.5 -48.5t9.5 -45t16.5 -43.5t25 -36.5t35 -30t47 -18t60 -7q49 0 85 16.5t53.5 38t27.5 52.5t11.5 49t1.5 38v232h102v-224q0 -27 -1 -46t-6.5 -50.5t-15.5 -54.5t-30.5 -50.5 t-48.5 -45.5t-71.5 -32t-98.5 -18l-2 -28q14 -4 30 -10t45.5 -22t49.5 -44.5t22 -65.5q2 -46 -32.5 -90.5t-110.5 -44.5q-24 0 -48 5t-46.5 13.5t-37.5 15.5t-33 16.5t-22 11.5l39 47q4 -2 20.5 -11t23 -12t19.5 -8.5t23.5 -7.5t20.5 -2q40 -1 59 20.5t19 46.5 q0 22 -11 38.5t-32 26t-35 14t-35 8.5l6 88q-95 12 -148 64.5t-71 111.5q-6 20 -9.5 46t-5 47t-1.5 23q0 24 -3 54z" />
<glyph unicode="&#xc8;" horiz-adv-x="681" d="M80 1802h199l180 -223h-68zM121 0v1446h512v-90h-414v-557h340v-88h-340v-621h412v-90h-510z" />
<glyph unicode="&#xc9;" horiz-adv-x="681" d="M121 0v1446h512v-90h-414v-557h340v-88h-340v-621h412v-90h-510zM248 1575l174 223h192l-290 -223h-76z" />
<glyph unicode="&#xca;" horiz-adv-x="681" d="M121 0v1446h512v-90h-414v-557h340v-88h-340v-621h412v-90h-510zM152 1575l159 223h103l149 -221h-82l-119 139l-124 -141h-86z" />
<glyph unicode="&#xcb;" horiz-adv-x="681" d="M121 0v1446h512v-90h-414v-557h340v-88h-340v-621h412v-90h-510zM160 1616v156h106v-156h-106zM463 1616v156h106v-156h-106z" />
<glyph unicode="&#xcc;" horiz-adv-x="342" d="M-90 1802h199l180 -223h-68zM119 0v1446h104v-1446h-104z" />
<glyph unicode="&#xcd;" horiz-adv-x="342" d="M45 1575l174 223h193l-291 -223h-76zM119 0v1446h104v-1446h-104z" />
<glyph unicode="&#xce;" horiz-adv-x="342" d="M-39 1575l158 223h104l148 -221h-80l-121 139l-125 -141h-84zM119 0v1446h104v-1446h-104z" />
<glyph unicode="&#xcf;" horiz-adv-x="342" d="M-33 1616v156h107v-156h-107zM119 0v1446h104v-1446h-104zM272 1616v156h105v-156h-105z" />
<glyph unicode="&#xd0;" horiz-adv-x="811" d="M-2 758v86h123v602h168q99 0 175.5 -24t139.5 -101q56 -67 75 -176t19 -297v-332q0 -62 -1.5 -95.5t-8.5 -95t-26.5 -110.5t-51.5 -88q-68 -84 -170 -111q-57 -16 -149 -16h-168v758h-125zM221 92h86q82 0 135 25q33 15 59 39.5t42 49t28 60t17.5 60.5t8.5 64t3 57.5 v52.5v14v344q0 180 -19.5 276.5t-84.5 153.5q-46 40 -95 53t-112 13h-68v-510h225v-86h-225v-666z" />
<glyph unicode="&#xd1;" horiz-adv-x="811" d="M113 0v1446h147l346 -1391l-14 1391h98v-1446h-153l-336 1366l8 -1366h-96zM182 1622q18 26 30 41t32 34.5t42 28.5t48 9q35 0 86 -21q63 -28 86 -28q21 0 37 8q7 4 14 9.5t11.5 10.5t15 17t18.5 20l31 -27q-18 -29 -31 -47q-29 -39 -56 -59.5t-65 -20.5q-12 0 -28.5 4.5 t-49.5 16.5t-51 18q-26 13 -49 13q-28 0 -46 -13t-42 -41z" />
<glyph unicode="&#xd2;" horiz-adv-x="811" d="M111 309v815l1 32q1 31 6 67t15 65q30 87 105 131.5t172 42.5q112 0 184 -53q36 -28 58.5 -63.5t31 -83.5t10.5 -79.5t2 -88.5v-799q0 -120 -43 -189q-29 -50 -92 -87t-162 -37q-151 0 -225 88q-39 49 -51 105t-12 134zM143 1802h199l180 -223h-65zM209 348 q0 -115 16 -164q14 -40 59.5 -76t121.5 -36q67 0 112 34q36 26 55.5 67t23 74.5t3.5 86.5v704q0 96 -7 150.5t-28 93.5q-24 48 -65 68q-38 22 -97 22q-60 0 -110 -31q-84 -54 -84 -196v-797z" />
<glyph unicode="&#xd3;" horiz-adv-x="811" d="M111 309v815l1 32q1 31 6 67t15 65q30 87 105 131.5t172 42.5q112 0 184 -53q36 -28 58.5 -63.5t31 -83.5t10.5 -79.5t2 -88.5v-799q0 -120 -43 -189q-29 -50 -92 -87t-162 -37q-151 0 -225 88q-39 49 -51 105t-12 134zM209 348q0 -115 16 -164q14 -40 59.5 -76 t121.5 -36q67 0 112 34q36 26 55.5 67t23 74.5t3.5 86.5v704q0 96 -7 150.5t-28 93.5q-24 48 -65 68q-38 22 -97 22q-60 0 -110 -31q-84 -54 -84 -196v-797zM281 1575l172 223h192l-291 -223h-73z" />
<glyph unicode="&#xd4;" horiz-adv-x="811" d="M111 309v815l1 32q1 31 6 67t15 65q30 87 105 131.5t172 42.5q112 0 184 -53q36 -28 58.5 -63.5t31 -83.5t10.5 -79.5t2 -88.5v-799q0 -120 -43 -189q-29 -50 -92 -87t-162 -37q-151 0 -225 88q-39 49 -51 105t-12 134zM195 1575l159 223h103l149 -221h-82l-121 139 l-124 -141h-84zM209 348q0 -115 16 -164q14 -40 59.5 -76t121.5 -36q67 0 112 34q36 26 55.5 67t23 74.5t3.5 86.5v704q0 96 -7 150.5t-28 93.5q-24 48 -65 68q-38 22 -97 22q-60 0 -110 -31q-84 -54 -84 -196v-797z" />
<glyph unicode="&#xd5;" horiz-adv-x="811" d="M111 309v815l1 32q1 31 6 67t15 65q30 87 105 131.5t172 42.5q112 0 184 -53q36 -28 58.5 -63.5t31 -83.5t10.5 -79.5t2 -88.5v-799q0 -120 -43 -189q-29 -50 -92 -87t-162 -37q-151 0 -225 88q-39 49 -51 105t-12 134zM182 1622q18 26 30 41t32 34.5t42 28.5t48 9 q35 0 86 -21q63 -28 86 -28q21 0 37 8q7 4 14 9.5t11.5 10.5t15 17t18.5 20l31 -27q-18 -29 -31 -47q-29 -39 -56 -59.5t-65 -20.5q-12 0 -28.5 4.5t-49.5 16.5t-51 18q-26 13 -49 13q-28 0 -46 -13t-42 -41zM209 348q0 -115 16 -164q14 -40 59.5 -76t121.5 -36q67 0 112 34 q36 26 55.5 67t23 74.5t3.5 86.5v704q0 96 -7 150.5t-28 93.5q-24 48 -65 68q-38 22 -97 22q-60 0 -110 -31q-84 -54 -84 -196v-797z" />
<glyph unicode="&#xd6;" horiz-adv-x="811" d="M111 309v815l1 32q1 31 6 67t15 65q30 87 105 131.5t172 42.5q112 0 184 -53q36 -28 58.5 -63.5t31 -83.5t10.5 -79.5t2 -88.5v-799q0 -120 -43 -189q-29 -50 -92 -87t-162 -37q-151 0 -225 88q-39 49 -51 105t-12 134zM199 1616v156h106v-156h-106zM209 348 q0 -115 16 -164q14 -40 59.5 -76t121.5 -36q67 0 112 34q36 26 55.5 67t23 74.5t3.5 86.5v704q0 96 -7 150.5t-28 93.5q-24 48 -65 68q-38 22 -97 22q-60 0 -110 -31q-84 -54 -84 -196v-797zM502 1616v156h106v-156h-106z" />
<glyph unicode="&#xd7;" horiz-adv-x="1142" d="M244 874l63 64l264 -264l242 268l61 -59l-243 -271l260 -260l-62 -65l-260 258l-229 -258l-66 57l236 260z" />
<glyph unicode="&#xd8;" horiz-adv-x="811" d="M72 -37l73 174q-19 38 -26.5 69t-7.5 95v729q0 141 4 180q15 124 96 195q80 68 201 68q125 0 198 -78q28 -28 45 -62l58 135l57 -26l-84 -193q10 -55 10 -104v-830q0 -66 -14 -127q-27 -101 -102 -152.5t-181 -51.5q-60 0 -105.5 16t-65 32t-46.5 46l-57 -137zM209 283 l385 907q-1 2 -2.5 15t-4.5 29.5t-7 29.5q-12 38 -36 63.5t-53.5 35.5t-49 13.5t-38.5 3.5q-62 0 -104 -28q-56 -36 -73 -95t-17 -145v-829zM229 188q15 -35 19 -41q47 -71 155 -71q97 0 144 55q51 58 51 201v706z" />
<glyph unicode="&#xd9;" horiz-adv-x="811" d="M117 342v1104h98v-1120q0 -132 33 -183q48 -73 160 -73q76 0 118 34q17 13 28.5 26.5t19 36.5t11 37.5t5.5 52.5t2 55.5v70.5v1063h100v-1159q0 -90 -20 -146q-17 -45 -47.5 -78.5t-60 -49.5t-66.5 -25.5t-57 -11t-40 -1.5q-110 0 -182 54q-25 16 -45 47q-22 29 -34.5 59 t-17 73.5t-5 60t-0.5 73.5zM143 1802h199l180 -223h-65z" />
<glyph unicode="&#xda;" horiz-adv-x="811" d="M117 342v1104h98v-1120q0 -132 33 -183q48 -73 160 -73q76 0 118 34q17 13 28.5 26.5t19 36.5t11 37.5t5.5 52.5t2 55.5v70.5v1063h100v-1159q0 -90 -20 -146q-17 -45 -47.5 -78.5t-60 -49.5t-66.5 -25.5t-57 -11t-40 -1.5q-110 0 -182 54q-25 16 -45 47q-22 29 -34.5 59 t-17 73.5t-5 60t-0.5 73.5zM281 1575l172 223h192l-291 -223h-73z" />
<glyph unicode="&#xdb;" horiz-adv-x="811" d="M117 342v1104h98v-1120q0 -132 33 -183q48 -73 160 -73q76 0 118 34q17 13 28.5 26.5t19 36.5t11 37.5t5.5 52.5t2 55.5v70.5v1063h100v-1159q0 -90 -20 -146q-17 -45 -47.5 -78.5t-60 -49.5t-66.5 -25.5t-57 -11t-40 -1.5q-110 0 -182 54q-25 16 -45 47q-22 29 -34.5 59 t-17 73.5t-5 60t-0.5 73.5zM195 1575l159 223h103l149 -221h-82l-121 139l-124 -141h-84z" />
<glyph unicode="&#xdc;" horiz-adv-x="811" d="M117 342v1104h98v-1120q0 -132 33 -183q48 -73 160 -73q76 0 118 34q17 13 28.5 26.5t19 36.5t11 37.5t5.5 52.5t2 55.5v70.5v1063h100v-1159q0 -90 -20 -146q-17 -45 -47.5 -78.5t-60 -49.5t-66.5 -25.5t-57 -11t-40 -1.5q-110 0 -182 54q-25 16 -45 47q-22 29 -34.5 59 t-17 73.5t-5 60t-0.5 73.5zM199 1616v156h106v-156h-106zM502 1616v156h106v-156h-106z" />
<glyph unicode="&#xdd;" horiz-adv-x="724" d="M29 1446h106l232 -680l229 680h111l-295 -807v-639h-99v639zM238 1575l172 223h194l-291 -223h-75z" />
<glyph unicode="&#xde;" horiz-adv-x="768" d="M119 0v1446h98v-240h125q101 0 150 -8q51 -10 88 -33t56 -49.5t30 -65.5t13.5 -69.5t2.5 -73.5v-205q0 -68 -10 -98q-16 -60 -49 -99.5t-79 -57t-86 -23.5t-91 -6h-148v-418h-100zM217 502h164q35 0 59.5 3t53.5 15.5t47 35.5t30.5 64.5t12.5 100.5v123 q0 101 -10.5 155.5t-45.5 85.5q-20 17 -53 25.5t-50.5 9t-53.5 0.5l-154 -2v-616z" />
<glyph unicode="&#xdf;" horiz-adv-x="724" d="M111 0v1182q0 76 13.5 130.5t57.5 94.5q61 55 187 55q85 0 136.5 -33t69.5 -77q17 -39 17 -101v-164q0 -42 -8 -73q-7 -27 -22.5 -48.5t-28 -33t-35.5 -22t-29 -12.5t-23 -7q58 -23 88 -42t52 -48q26 -34 33.5 -76t7.5 -102v-453q0 -37 -9 -72q-33 -114 -169 -114 q-34 0 -66 12q-78 29 -78 131v160h60v-133q0 -58 41 -78q18 -10 43 -10q90 2 90 122v377v12q0 52 -2 80.5t-17 69.5t-45 66q-21 18 -48 28.5t-47 13t-56 5.5v88q32 1 48.5 3t39 10.5t41.5 25.5q24 20 36 47t13.5 46.5t1.5 57.5v92q0 58 -6 82q-26 86 -136 86q-55 0 -92 -18 q-18 -9 -31 -21.5t-20.5 -31.5t-12 -31.5t-6 -39.5t-1.5 -35.5v-37.5v-1163h-88z" />
<glyph unicode="&#xe0;" d="M57 242q0 89 37 161q17 31 40 57t54 47.5t54.5 35t64 34.5t58.5 31q54 31 90 60v116q0 39 -1 57.5t-12.5 47.5t-35.5 45q-25 18 -82 18q-89 0 -117 -65q-24 -50 -19 -174h-88q0 96 4 135t21 76q50 112 211 112q66 0 121 -28q55 -31 71.5 -78t16.5 -121v-692 q1 -11 5.5 -18t8.5 -10.5t15 -5t14.5 -1.5h17.5v-82q-51 0 -77 6t-44 23q-19 16 -28 51q-66 -52 -120 -68q-38 -12 -79 -12q-101 0 -151 69t-50 173zM82 1389h199l178 -224h-68zM145 240q0 -20 3.5 -40t15.5 -50t42 -49t75 -19q55 0 93.5 24t82.5 72v393q-31 -25 -66 -43 q-20 -12 -56.5 -31t-45.5 -24q-74 -45 -109 -98.5t-35 -134.5z" />
<glyph unicode="&#xe1;" d="M57 242q0 89 37 161q17 31 40 57t54 47.5t54.5 35t64 34.5t58.5 31q54 31 90 60v116q0 39 -1 57.5t-12.5 47.5t-35.5 45q-25 18 -82 18q-89 0 -117 -65q-24 -50 -19 -174h-88q0 96 4 135t21 76q50 112 211 112q66 0 121 -28q55 -31 71.5 -78t16.5 -121v-692 q1 -11 5.5 -18t8.5 -10.5t15 -5t14.5 -1.5h17.5v-82q-51 0 -77 6t-44 23q-19 16 -28 51q-66 -52 -120 -68q-38 -12 -79 -12q-101 0 -151 69t-50 173zM145 240q0 -20 3.5 -40t15.5 -50t42 -49t75 -19q55 0 93.5 24t82.5 72v393q-31 -25 -66 -43q-20 -12 -56.5 -31t-45.5 -24 q-74 -45 -109 -98.5t-35 -134.5zM215 1161l172 223h193l-291 -223h-74z" />
<glyph unicode="&#xe2;" d="M57 242q0 89 37 161q17 31 40 57t54 47.5t54.5 35t64 34.5t58.5 31q54 31 90 60v116q0 39 -1 57.5t-12.5 47.5t-35.5 45q-25 18 -82 18q-89 0 -117 -65q-24 -50 -19 -174h-88q0 96 4 135t21 76q50 112 211 112q66 0 121 -28q55 -31 71.5 -78t16.5 -121v-692 q1 -11 5.5 -18t8.5 -10.5t15 -5t14.5 -1.5h17.5v-82q-51 0 -77 6t-44 23q-19 16 -28 51q-66 -52 -120 -68q-38 -12 -79 -12q-101 0 -151 69t-50 173zM133 1163l156 223h104l148 -223h-80l-119 142l-127 -142h-82zM145 240q0 -20 3.5 -40t15.5 -50t42 -49t75 -19 q55 0 93.5 24t82.5 72v393q-31 -25 -66 -43q-20 -12 -56.5 -31t-45.5 -24q-74 -45 -109 -98.5t-35 -134.5z" />
<glyph unicode="&#xe3;" d="M57 242q0 89 37 161q17 31 40 57t54 47.5t54.5 35t64 34.5t58.5 31q54 31 90 60v116q0 39 -1 57.5t-12.5 47.5t-35.5 45q-25 18 -82 18q-89 0 -117 -65q-24 -50 -19 -174h-88q0 96 4 135t21 76q50 112 211 112q66 0 121 -28q55 -31 71.5 -78t16.5 -121v-692 q1 -11 5.5 -18t8.5 -10.5t15 -5t14.5 -1.5h17.5v-82q-51 0 -77 6t-44 23q-19 16 -28 51q-66 -52 -120 -68q-38 -12 -79 -12q-101 0 -151 69t-50 173zM119 1210q22 34 39 54.5t47.5 39.5t64.5 19q39 0 84 -20q8 -3 26 -11.5t32.5 -13t27.5 -4.5q24 0 39 10q20 11 58 55 l32 -26q-5 -8 -16 -23.5t-16 -23.5q-29 -39 -55.5 -59.5t-63.5 -20.5q-13 0 -30.5 5t-48.5 17.5t-50 18.5q-30 10 -49 10q-28 0 -47.5 -13.5t-42.5 -39.5zM145 240q0 -20 3.5 -40t15.5 -50t42 -49t75 -19q55 0 93.5 24t82.5 72v393q-31 -25 -66 -43q-20 -12 -56.5 -31 t-45.5 -24q-74 -45 -109 -98.5t-35 -134.5z" />
<glyph unicode="&#xe4;" d="M57 242q0 89 37 161q17 31 40 57t54 47.5t54.5 35t64 34.5t58.5 31q54 31 90 60v116q0 39 -1 57.5t-12.5 47.5t-35.5 45q-25 18 -82 18q-89 0 -117 -65q-24 -50 -19 -174h-88q0 96 4 135t21 76q50 112 211 112q66 0 121 -28q55 -31 71.5 -78t16.5 -121v-692 q1 -11 5.5 -18t8.5 -10.5t15 -5t14.5 -1.5h17.5v-82q-51 0 -77 6t-44 23q-19 16 -28 51q-66 -52 -120 -68q-38 -12 -79 -12q-101 0 -151 69t-50 173zM145 240q0 -20 3.5 -40t15.5 -50t42 -49t75 -19q55 0 93.5 24t82.5 72v393q-31 -25 -66 -43q-20 -12 -56.5 -31t-45.5 -24 q-74 -45 -109 -98.5t-35 -134.5zM186 1198v158h99v-158h-99zM389 1198v158h98v-158h-98z" />
<glyph unicode="&#xe5;" d="M57 242q0 89 37 161q17 31 40 57t54 47.5t54.5 35t64 34.5t58.5 31q54 31 90 60v116q0 39 -1 57.5t-12.5 47.5t-35.5 45q-25 18 -82 18q-89 0 -117 -65q-24 -50 -19 -174h-88q0 96 4 135t21 76q50 112 211 112q66 0 121 -28q55 -31 71.5 -78t16.5 -121v-692 q1 -11 5.5 -18t8.5 -10.5t15 -5t14.5 -1.5h17.5v-82q-51 0 -77 6t-44 23q-19 16 -28 51q-66 -52 -120 -68q-38 -12 -79 -12q-101 0 -151 69t-50 173zM145 240q0 -20 3.5 -40t15.5 -50t42 -49t75 -19q55 0 93.5 24t82.5 72v393q-31 -25 -66 -43q-20 -12 -56.5 -31t-45.5 -24 q-74 -45 -109 -98.5t-35 -134.5zM203 1262q0 57 39.5 96t95.5 39t95.5 -40.5t39.5 -96.5q0 -57 -39.5 -96.5t-95.5 -39.5q-55 0 -96 41q-39 39 -39 97zM248 1260q0 -38 26 -64q27 -27 64 -27q38 0 64 28t26 65t-26.5 63.5t-63.5 26.5q-38 -1 -64 -28t-26 -64z" />
<glyph unicode="&#xe6;" horiz-adv-x="1024" d="M61 240q0 95 36 161t114 117q25 17 117 64q56 29 139 82v161q0 87 -61 115q-34 14 -68 14q-39 0 -76 -20q-16 -9 -28 -22t-19 -32.5t-11 -32t-5.5 -39.5t-1.5 -34v-35v-22h-86v74q0 167 110 219q55 22 121 22q105 0 158 -53q15 -15 24 -27l25 25q59 57 162 57 q48 0 86 -12t62 -28.5t41 -45t25 -49.5t12.5 -54.5t4.5 -47.5v-41v-11v-219h-389v-215q0 -89 15.5 -134t56.5 -73q36 -26 82 -26q40 0 67 16q83 39 82 159v5v94h88v-63q0 -127 -37 -189q-22 -37 -55 -61q-62 -45 -141 -45q-112 0 -174 69q-17 21 -43 58q-10 -20 -37 -47 q-14 -14 -35.5 -29.5t-64 -32t-85.5 -16.5q-36 0 -70 11t-67.5 36t-53.5 75.5t-20 121.5zM147 240q0 -35 13 -74q30 -88 133 -88q39 0 70.5 12.5t52 36.5t29 38t19.5 36l3 6v368q-26 -19 -46 -32t-29 -18t-39.5 -20.5t-45.5 -23.5q-54 -29 -88 -63t-53 -86q-19 -49 -19 -92z M553 600h303v180q0 56 -12 93t-51 59t-84 22q-82 0 -123 -59q-19 -26 -26 -58.5t-7 -91.5v-145z" />
<glyph unicode="&#xe7;" d="M82 295v475q0 65 16 113.5t40.5 76t59 44.5t65.5 22t65 4q47 -1 84.5 -14.5t61 -31.5t40 -46.5t24.5 -50t12 -52t4.5 -43.5t0.5 -32v-6v-90h-86v77q0 37 -1.5 60.5t-15 60.5t-38.5 60q-37 32 -92 32q-44 0 -75 -18t-45.5 -40.5t-22.5 -54t-8.5 -46t-0.5 -29.5v-2v-459 q0 -39 1.5 -64t10.5 -59.5t25.5 -55t48 -35.5t76.5 -15q143 0 143 168v149h88v-133q0 -92 -23 -143q-48 -106 -192 -121l-2 -47q15 -4 30.5 -10t45.5 -22t50 -44.5t22 -65.5q1 -19 -6 -40.5t-22 -43.5t-46 -36.5t-72 -14.5q-28 0 -60.5 8.5t-50 16.5t-45.5 23l-28 14l39 47 q5 -3 20.5 -11t23 -11.5t19.5 -9t22.5 -7.5t20.5 -2q40 -1 59 20.5t19 46.5q0 22 -11 38.5t-32 26t-35 14t-35 8.5l7 102q-53 9 -91 31.5t-58.5 49.5t-32 67t-14.5 72.5t-3 78.5z" />
<glyph unicode="&#xe8;" d="M59 1389h199l178 -224h-65zM88 250v541q0 53 12 96q8 26 21.5 49t38.5 47t66.5 38.5t95.5 14.5q132 0 196 -90q20 -31 29.5 -77t10.5 -72.5t1 -83.5v-207h-385v-254q0 -43 8 -74q29 -100 146 -100q63 0 102 37q21 21 29 45q3 7 5 14.5t3.5 17.5t2.5 17t1.5 19.5t1 20 t0.5 24v25v29.5v31h86v-116q0 -52 -9 -88.5t-36 -71.5q-63 -84 -192 -84q-48 0 -89 12q-32 9 -71 40t-58 85q-16 41 -16 115zM174 580h297v188q0 118 -57 162q-39 28 -90 28q-55 0 -91 -28q-37 -29 -48 -69.5t-11 -100.5v-180z" />
<glyph unicode="&#xe9;" d="M88 250v541q0 53 12 96q8 26 21.5 49t38.5 47t66.5 38.5t95.5 14.5q132 0 196 -90q20 -31 29.5 -77t10.5 -72.5t1 -83.5v-207h-385v-254q0 -43 8 -74q29 -100 146 -100q63 0 102 37q21 21 29 45q3 7 5 14.5t3.5 17.5t2.5 17t1.5 19.5t1 20t0.5 24v25v29.5v31h86v-116 q0 -52 -9 -88.5t-36 -71.5q-63 -84 -192 -84q-48 0 -89 12q-32 9 -71 40t-58 85q-16 41 -16 115zM174 580h297v188q0 118 -57 162q-39 28 -90 28q-55 0 -91 -28q-37 -29 -48 -69.5t-11 -100.5v-180zM193 1161l172 223h194l-293 -223h-73z" />
<glyph unicode="&#xea;" d="M88 250v541q0 53 12 96q8 26 21.5 49t38.5 47t66.5 38.5t95.5 14.5q132 0 196 -90q20 -31 29.5 -77t10.5 -72.5t1 -83.5v-207h-385v-254q0 -43 8 -74q29 -100 146 -100q63 0 102 37q21 21 29 45q3 7 5 14.5t3.5 17.5t2.5 17t1.5 19.5t1 20t0.5 24v25v29.5v31h86v-116 q0 -52 -9 -88.5t-36 -71.5q-63 -84 -192 -84q-48 0 -89 12q-32 9 -71 40t-58 85q-16 41 -16 115zM111 1163l157 223h105l147 -223h-80l-121 142l-124 -142h-84zM174 580h297v188q0 118 -57 162q-39 28 -90 28q-55 0 -91 -28q-37 -29 -48 -69.5t-11 -100.5v-180z" />
<glyph unicode="&#xeb;" d="M88 250v541q0 53 12 96q8 26 21.5 49t38.5 47t66.5 38.5t95.5 14.5q132 0 196 -90q20 -31 29.5 -77t10.5 -72.5t1 -83.5v-207h-385v-254q0 -43 8 -74q29 -100 146 -100q63 0 102 37q21 21 29 45q3 7 5 14.5t3.5 17.5t2.5 17t1.5 19.5t1 20t0.5 24v25v29.5v31h86v-116 q0 -52 -9 -88.5t-36 -71.5q-63 -84 -192 -84q-48 0 -89 12q-32 9 -71 40t-58 85q-16 41 -16 115zM164 1198v158h98v-158h-98zM174 580h297v188q0 118 -57 162q-39 28 -90 28q-55 0 -91 -28q-37 -29 -48 -69.5t-11 -100.5v-180zM367 1198v158h98v-158h-98z" />
<glyph unicode="&#xec;" horiz-adv-x="299" d="M-111 1389h199l178 -224h-67zM106 0v1032h89v-1032h-89z" />
<glyph unicode="&#xed;" horiz-adv-x="299" d="M23 1161l172 223h192l-291 -223h-73zM106 0v1032h89v-1032h-89z" />
<glyph unicode="&#xee;" horiz-adv-x="299" d="M-59 1163l157 223h103l147 -223h-80l-118 142l-125 -142h-84zM106 0v1032h89v-1032h-89z" />
<glyph unicode="&#xef;" horiz-adv-x="299" d="M-6 1198v158h98v-158h-98zM106 0v1032h89v-1032h-89zM197 1198v158h98v-158h-98z" />
<glyph unicode="&#xf0;" d="M80 248v540q0 60 14 99q18 50 53 83.5t74 46t60 16t36 3.5q52 0 87.5 -17.5t72.5 -66.5q-5 60 -10.5 95.5t-22.5 84t-47 93.5l-211 -78l-28 61l196 76q-14 17 -57.5 61t-83.5 74l72 37q2 -2 20.5 -18t28 -24.5t27 -25.5t34 -35.5t33.5 -39.5l131 49l29 -64l-117 -45 q54 -93 73 -186t19 -272l-2 -504q0 -36 -1 -57t-7.5 -57.5t-19 -60.5t-38.5 -51t-63 -45q-49 -24 -115 -24q-65 0 -125 28t-92 93q-20 43 -20 131zM167.5 760.5q0.5 -11.5 0.5 -12.5v-498q0 -18 1 -32.5t9 -43t23 -47.5t46.5 -33.5t74.5 -13.5q151 4 151 178v514 q0 1 -0.5 14t-1.5 24t-4.5 28.5t-9 31.5t-16.5 29.5t-25.5 26t-37 17.5t-50.5 7q-26 0 -47.5 -5t-37.5 -13t-28 -20.5t-20 -24t-13.5 -27.5t-8.5 -28t-4 -28l-1.5 -24t0 -19.5z" />
<glyph unicode="&#xf1;" horiz-adv-x="681" d="M113 0v1030h86v-98q15 25 39 49q61 61 151 61q66 -2 116 -35t68 -96q11 -40 11 -84v-827h-86v825l-3 24q-3 24 -8 40q-30 80 -116 78q-91 0 -146 -78q-12 -16 -26 -51v-838h-86zM119 1210q22 34 39 54.5t47.5 39.5t64.5 19q39 0 84 -20q8 -3 26 -11.5t32.5 -13t27.5 -4.5 q24 0 39 10q20 11 58 55l32 -26q-5 -8 -16 -23.5t-16 -23.5q-29 -39 -55.5 -59.5t-63.5 -20.5q-13 0 -30.5 5t-48.5 17.5t-50 18.5q-30 10 -49 10q-28 0 -47.5 -13.5t-42.5 -39.5z" />
<glyph unicode="&#xf2;" d="M59 1389h199l178 -224h-65zM80 248v540q0 52 8 86.5t35 69.5q65 92 205 92q110 0 172 -59q30 -30 47 -76q14 -41 14 -119v-491q0 -85 -14 -133q-15 -52 -46.5 -88t-69.5 -50t-64 -19t-50 -5q-71 0 -132.5 32.5t-86.5 94.5q-18 44 -18 125zM168 250q0 -41 6 -68 q13 -51 51 -76.5t92 -25.5q107 0 142 88q14 35 14 90v516q0 53 -11.5 90t-47.5 62q-32 24 -86 24q-63 0 -99 -28q-29 -21 -43 -52.5t-16 -54.5t-2 -67v-498z" />
<glyph unicode="&#xf3;" d="M80 248v540q0 52 8 86.5t35 69.5q65 92 205 92q110 0 172 -59q30 -30 47 -76q14 -41 14 -119v-491q0 -85 -14 -133q-15 -52 -46.5 -88t-69.5 -50t-64 -19t-50 -5q-71 0 -132.5 32.5t-86.5 94.5q-18 44 -18 125zM168 250q0 -41 6 -68q13 -51 51 -76.5t92 -25.5 q107 0 142 88q14 35 14 90v516q0 53 -11.5 90t-47.5 62q-32 24 -86 24q-63 0 -99 -28q-29 -21 -43 -52.5t-16 -54.5t-2 -67v-498zM193 1161l172 223h194l-293 -223h-73z" />
<glyph unicode="&#xf4;" d="M80 248v540q0 52 8 86.5t35 69.5q65 92 205 92q110 0 172 -59q30 -30 47 -76q14 -41 14 -119v-491q0 -85 -14 -133q-15 -52 -46.5 -88t-69.5 -50t-64 -19t-50 -5q-71 0 -132.5 32.5t-86.5 94.5q-18 44 -18 125zM111 1163l157 223h105l147 -223h-80l-121 142l-124 -142 h-84zM168 250q0 -41 6 -68q13 -51 51 -76.5t92 -25.5q107 0 142 88q14 35 14 90v516q0 53 -11.5 90t-47.5 62q-32 24 -86 24q-63 0 -99 -28q-29 -21 -43 -52.5t-16 -54.5t-2 -67v-498z" />
<glyph unicode="&#xf5;" d="M80 248v540q0 52 8 86.5t35 69.5q65 92 205 92q110 0 172 -59q30 -30 47 -76q14 -41 14 -119v-491q0 -85 -14 -133q-15 -52 -46.5 -88t-69.5 -50t-64 -19t-50 -5q-71 0 -132.5 32.5t-86.5 94.5q-18 44 -18 125zM96 1210q18 26 30 41t32 34.5t42 28.5t48 9q41 0 86 -20 q8 -3 26 -11.5t32.5 -13t27.5 -4.5q22 0 37 10q6 3 11 6t10.5 9t9.5 10t13 14t15 16l31 -26q-5 -8 -15.5 -23.5t-15.5 -23.5q-29 -39 -56 -59.5t-65 -20.5q-12 0 -29 5.5t-48 17t-52 18.5q-20 10 -47 10q-29 0 -48 -13t-42 -40zM168 250q0 -41 6 -68q13 -51 51 -76.5 t92 -25.5q107 0 142 88q14 35 14 90v516q0 53 -11.5 90t-47.5 62q-32 24 -86 24q-63 0 -99 -28q-29 -21 -43 -52.5t-16 -54.5t-2 -67v-498z" />
<glyph unicode="&#xf6;" d="M80 248v540q0 52 8 86.5t35 69.5q65 92 205 92q110 0 172 -59q30 -30 47 -76q14 -41 14 -119v-491q0 -85 -14 -133q-15 -52 -46.5 -88t-69.5 -50t-64 -19t-50 -5q-71 0 -132.5 32.5t-86.5 94.5q-18 44 -18 125zM168 250q0 -41 6 -68q13 -51 51 -76.5t92 -25.5 q107 0 142 88q14 35 14 90v516q0 53 -11.5 90t-47.5 62q-32 24 -86 24q-63 0 -99 -28q-29 -21 -43 -52.5t-16 -54.5t-2 -67v-498zM170 1198v158h98v-158h-98zM373 1198v158h98v-158h-98z" />
<glyph unicode="&#xf7;" horiz-adv-x="1144" d="M174 563v86h799v-86h-799zM524 285v151h101v-151h-101zM524 774v152h101v-152h-101z" />
<glyph unicode="&#xf8;" d="M45 12l55 109q-1 5 -4.5 15.5t-4.5 14t-3.5 11.5t-3 11.5t-2.5 11t-2 12t-1 12t-1 15v16.5v520q0 146 67 211q65 65 183 65q92 0 153 -45q22 -15 39 -41l45 84l37 -20l-59 -115q1 -2 2 -7q13 -40 14 -85v-16v-545q0 -56 -16 -103q-16 -48 -49 -81t-70.5 -45t-64 -16 t-48.5 -3q-67 0 -112 22q-21 9 -39 21q-8 6 -15 14t-12.5 14.5t-7.5 8.5l-45 -86zM166 252l299 586q-7 24 -12.5 37t-20.5 34t-42.5 31t-67.5 10q-78 0 -117 -47q-25 -29 -32 -63.5t-7 -85.5v-502zM176 176q8 -32 21 -45q37 -53 120 -53q60 0 97 28q22 17 35 40t17.5 57 t5.5 52t1 56v447z" />
<glyph unicode="&#xf9;" horiz-adv-x="681" d="M82 1389h199l178 -224h-68zM102 236v794h86v-762q0 -148 78 -186q20 -12 58 -12q80 0 125 63q19 27 34 70v827h88v-1030h-88v96q-28 -35 -32 -39q-66 -63 -154 -63q-45 0 -86.5 20t-67.5 56q-41 54 -41 166z" />
<glyph unicode="&#xfa;" horiz-adv-x="681" d="M102 236v794h86v-762q0 -148 78 -186q20 -12 58 -12q80 0 125 63q19 27 34 70v827h88v-1030h-88v96q-28 -35 -32 -39q-66 -63 -154 -63q-45 0 -86.5 20t-67.5 56q-41 54 -41 166zM215 1161l172 223h193l-291 -223h-74z" />
<glyph unicode="&#xfb;" horiz-adv-x="681" d="M102 236v794h86v-762q0 -148 78 -186q20 -12 58 -12q80 0 125 63q19 27 34 70v827h88v-1030h-88v96q-28 -35 -32 -39q-66 -63 -154 -63q-45 0 -86.5 20t-67.5 56q-41 54 -41 166zM133 1163l156 223h104l148 -223h-80l-119 142l-127 -142h-82z" />
<glyph unicode="&#xfc;" horiz-adv-x="681" d="M102 236v794h86v-762q0 -148 78 -186q20 -12 58 -12q80 0 125 63q19 27 34 70v827h88v-1030h-88v96q-28 -35 -32 -39q-66 -63 -154 -63q-45 0 -86.5 20t-67.5 56q-41 54 -41 166zM186 1198v158h99v-158h-99zM389 1198v158h98v-158h-98z" />
<glyph unicode="&#xfd;" horiz-adv-x="598" d="M18 -336l2 86q142 -17 191 82q11 22 18 57l27 119l-225 1022h88l180 -856l182 856h92l-264 -1147q-13 -53 -27.5 -87.5t-43.5 -65.5t-72 -46.5t-71 -17.5t-77 -2zM172 1161l172 223h193l-291 -223h-74z" />
<glyph unicode="&#xfe;" horiz-adv-x="681" d="M111 -334v1780h82v-512q85 104 190 106q71 0 115 -34q31 -24 50 -56t26 -72.5t8.5 -65t1.5 -67.5v-14v-498q0 -66 -19 -116.5t-76 -89.5q-54 -33 -114 -33q-107 0 -176 90v-418h-88zM199 193q13 -37 35.5 -62.5t48 -36t43 -14.5t32.5 -4q42 0 71.5 17.5t41.5 42.5t20 52 t5.5 47t-0.5 27v2v537q0 84 -40.5 122t-93.5 38q-18 0 -37.5 -4.5t-44.5 -17t-47 -41.5t-34 -71v-634z" />
<glyph unicode="&#xff;" horiz-adv-x="598" d="M18 -336l2 86q142 -17 191 82q11 22 18 57l27 119l-225 1022h88l180 -856l182 856h92l-264 -1147q-13 -53 -27.5 -87.5t-43.5 -65.5t-72 -46.5t-71 -17.5t-77 -2zM164 1198v158h98v-158h-98zM367 1198v158h98v-158h-98z" />
<glyph unicode="&#x152;" horiz-adv-x="1110" d="M102 283v833q0 109 22.5 179.5t94.5 119.5q67 47 172 47q54 0 98 -15t62.5 -29t44.5 -38v66h473v-88h-377v-565h334v-86h-332v-619h377v-88h-473v82q-23 -28 -39 -41q-76 -61 -186 -61q-90 0 -160 45q-111 74 -111 258zM199 282.5q0 -12.5 3.5 -45t10 -49.5t20 -39.5 t33.5 -39.5q51 -43 123 -43q40 0 82 16q85 38 113 117q14 36 14 90v772q0 41 -1 67t-7.5 67t-18 67.5t-35 53.5t-57.5 42q-48 18 -92 18q-94 -1 -141 -58.5t-47 -152.5v-831v-51.5z" />
<glyph unicode="&#x153;" horiz-adv-x="1024" d="M86 264v467q0 108 10 147q18 72 78 111q62 43 150 43q107 0 168 -61q4 -5 15 -19.5t15 -19.5q10 20 33 43q62 59 168 59q84 0 139 -41q30 -23 48.5 -53t25.5 -70.5t8.5 -66t1.5 -73.5v-17v-191h-385v-205v-11q0 -51 2 -79t18.5 -65.5t49.5 -59.5q36 -26 86 -26 q51 0 82 22t43 49q16 32 16 93v106h88v-90q0 -77 -14 -123q-16 -55 -66.5 -98.5t-144.5 -42.5q-106 0 -166 57q-19 19 -41 62q-17 -25 -27 -37q-71 -82 -180 -82q-66 0 -123 31q-33 18 -54 44.5t-30 61.5t-11.5 63.5t-2.5 71.5zM172 319q0 -98 10.5 -143t48.5 -74 q35 -26 86 -26q81 0 121 57q22 29 28.5 61.5t6.5 81.5v494q0 182 -149 182q-65 0 -100.5 -33.5t-43.5 -70.5q-8 -27 -8 -78v-451zM559 596h299v168q0 74 -16 113q-32 77 -125 77q-36 0 -65 -12.5t-45.5 -32t-25 -36t-12.5 -31.5q-10 -34 -10 -76v-170z" />
<glyph unicode="&#x178;" horiz-adv-x="724" d="M29 1446h106l232 -680l229 680h111l-295 -807v-639h-99v639zM160 1616v156h106v-156h-106zM463 1616v156h106v-156h-106z" />
<glyph unicode="&#x2c6;" horiz-adv-x="468" d="M29 1163l157 223h103l151 -223h-82l-118 142l-125 -142h-86z" />
<glyph unicode="&#x2dc;" horiz-adv-x="468" d="M8 1210q18 26 30 41t32 34.5t42 28.5t48 9q38 0 86 -20q4 -2 24.5 -11t34.5 -13.5t27 -4.5q22 0 37 10q5 2 9.5 5.5t8 6t9 8.5t8 9t10.5 12t12 14l35 -26q-11 -18 -33 -47q-20 -26 -33 -40t-36 -27t-50 -13q-13 0 -30 5.5t-47.5 17t-51.5 18.5q-20 10 -49 10 q-19 0 -36.5 -8.5t-26.5 -17t-27 -27.5z" />
<glyph unicode="&#x2000;" horiz-adv-x="901" />
<glyph unicode="&#x2001;" horiz-adv-x="1802" />
<glyph unicode="&#x2002;" horiz-adv-x="901" />
<glyph unicode="&#x2003;" horiz-adv-x="1802" />
<glyph unicode="&#x2004;" horiz-adv-x="600" />
<glyph unicode="&#x2005;" horiz-adv-x="450" />
<glyph unicode="&#x2006;" horiz-adv-x="300" />
<glyph unicode="&#x2007;" horiz-adv-x="300" />
<glyph unicode="&#x2008;" horiz-adv-x="225" />
<glyph unicode="&#x2009;" horiz-adv-x="360" />
<glyph unicode="&#x200a;" horiz-adv-x="100" />
<glyph unicode="&#x2010;" horiz-adv-x="507" d="M72 555v86h362v-86h-362z" />
<glyph unicode="&#x2011;" horiz-adv-x="507" d="M72 555v86h362v-86h-362z" />
<glyph unicode="&#x2012;" horiz-adv-x="507" d="M72 555v86h362v-86h-362z" />
<glyph unicode="&#x2013;" horiz-adv-x="727" d="M72 555v86h581v-86h-581z" />
<glyph unicode="&#x2014;" horiz-adv-x="1007" d="M72 561v86h862v-86h-862z" />
<glyph unicode="&#x2018;" horiz-adv-x="299" d="M111 1075v187q0 72 18 113.5t74 70.5v-45q-24 -17 -35.5 -42t-12.5 -41.5t-1 -55.5h49v-187h-92z" />
<glyph unicode="&#x2019;" horiz-adv-x="299" d="M102 1075v45q34 24 43 55t9 85h-50v186h93v-186q0 -72 -19 -114t-76 -71z" />
<glyph unicode="&#x201a;" horiz-adv-x="299" d="M102 -139q24 16 36 40.5t14 43.5t2 55h-50v186h93v-186q0 -73 -18.5 -114t-76.5 -70v45z" />
<glyph unicode="&#x201c;" horiz-adv-x="512" d="M88 1075v187q0 73 17.5 115.5t74.5 70.5v-45q-24 -17 -35.5 -42.5t-12.5 -42.5t-1 -56h49v-187h-92zM311 1075v187q0 72 18 114.5t74 71.5v-45q-18 -14 -29 -28.5t-15 -36t-4.5 -33.5t-0.5 -43h49v-187h-92z" />
<glyph unicode="&#x201d;" horiz-adv-x="512" d="M96 1075v45q24 16 36 41t13.5 43.5t1.5 55.5h-49v186h92v-186q0 -72 -18.5 -114t-75.5 -71zM319 1075v45q34 24 43 55t9 85h-52v186h93v-186q0 -73 -18 -114.5t-75 -70.5z" />
<glyph unicode="&#x201e;" horiz-adv-x="512" d="M96 -139q25 17 36.5 41.5t13 41t1.5 56.5h-49v186h92v-186q0 -73 -18 -114t-76 -70v45zM319 0v186h93v-186q0 -72 -18 -113.5t-75 -70.5v45q24 16 36 40.5t14 43.5t2 55h-52z" />
<glyph unicode="&#x2022;" horiz-adv-x="681" d="M195 524v408h292l-2 -408h-290z" />
<glyph unicode="&#x2026;" horiz-adv-x="2048" d="M289 0v133h106v-133h-106zM971 0v133h106v-133h-106zM1653 0v133h104v-133h-104z" />
<glyph unicode="&#x202f;" horiz-adv-x="360" />
<glyph unicode="&#x2039;" horiz-adv-x="512" d="M72 600l254 205h123l-250 -205l239 -205h-114z" />
<glyph unicode="&#x203a;" horiz-adv-x="512" d="M55 391l264 207l-249 203h123l247 -201l-258 -209h-127z" />
<glyph unicode="&#x205f;" horiz-adv-x="450" />
<glyph unicode="&#x20ac;" horiz-adv-x="790" d="M53 635l17 78h106v104h-123l17 78h106v176q0 74 2 105q6 130 72 202q75 84 219 84q93 0 153.5 -27.5t110.5 -91.5l-33 -102q-50 71 -102 101t-127 30q-58 0 -102 -20.5t-64 -57.5q-35 -60 -35 -213v-186h367l-25 -78h-342v-104h324l-23 -78h-299v-205q0 -112 5.5 -163 t21.5 -91q43 -106 180 -106q74 0 134 30t118 97v-129q-64 -49 -123.5 -70t-136.5 -21q-181 0 -254 129q-23 40 -32 88.5t-9 133.5v307h-123z" />
<glyph unicode="&#x2122;" horiz-adv-x="1052" d="M45 1372v74h332v-74h-123v-606h-82v606h-127zM438 1446h117l123 -606l123 606h119l2 -680h-80l8 614l-127 -614h-90l-127 614l14 -614h-80z" />
<glyph unicode="&#x25fc;" horiz-adv-x="1034" d="M0 0v1034h1034v-1034h-1034z" />
</font>
</defs>
</svg>
